Поиск

1956 Shorty Rogers And His Giants - Clickin' With Clax (2013) {Atlantic, Warner, Rhino WPCR-27407}

1956 Shorty Rogers And His Giants - Clickin' With Clax (2013) {Atlantic, Warner, Rhino WPCR-27407}
Стили:
Издатель (лейбл):

Треклист:
Носитель: CD
Страна-производитель диска (релиза): Japan
Год издания: 2013
Издатель (лейбл): Atlantic/Warner Japan/Rhino
Номер по каталогу: WPCR-27407
Аудиокодек: FLAC (*.flac)
Тип рипа: tracks+.cue
Битрейт аудио: lossless
Продолжительность: 40:00
Rip by ruskaval
Наличие сканов в содержимом раздачи: да
Треклист:
01. Toyland (4:08)
02. I Dig Ed (3:10)
03. Adam In New York (3:16)
04. Clickin' With Clax (7:25)
05. Put The Goodies On (6:20)
06. Our Song (5:27)
07. Pete's Meat (4:51)
08. Mike's Peak (5:24)
 
Лог создания рипа
Exact Audio Copy V1.0 beta 4 from 7. December 2014
EAC extraction logfile from 1. May 2015, 6:22
Shorty Rogers And His Giants / Clickin' With Clax
Used drive  : TSSTcorpCDDVDW SE-208DB   Adapter: 1  ID: 1
Read mode               : Secure
Utilize accurate stream : Yes
Defeat audio cache      : Yes
Make use of C2 pointers : No
Read offset correction                      : 6
Overread into Lead-In and Lead-Out          : No
Fill up missing offset samples with silence : Yes
Delete leading and trailing silent blocks   : No
Null samples used in CRC calculations       : Yes
Used interface                              : Native Win32 interface for Win NT & 2000
Gap handling                                : Appended to previous track
Used output format              : User Defined Encoder
Selected bitrate                : 1024 kBit/s
Quality                         : High
Add ID3 tag                     : No
Command line compressor         : C:\Program Files (x86)\FLAC Frontend\tools\flac.exe
Additional command line options : -8 -V -T "ARTIST=%artist%" -T "TITLE=%title%" -T "ALBUM=%albumtitle%" -T "DATE=%year%" -T "TRACKNUMBER=%tracknr%" -T "TOTALTRACKS=%numtracks%" -T "GENRE=%genre%" -T "ALBUMARTIST=%albumartist%" -T "ALBUM ARTIST=%albumartist%" -T "COMMENT=EAC Secure Mode, Test & Copy, AccurateRip, FLAC -8" %source%
TOC of the extracted CD
     Track |   Start  |  Length  | Start sector | End sector
    ---------------------------------------------------------
        1  |  0:00.00 |  4:08.15 |         0    |    18614
        2  |  4:08.15 |  3:10.24 |     18615    |    32888
        3  |  7:18.39 |  3:15.70 |     32889    |    47583
        4  | 10:34.34 |  7:24.41 |     47584    |    80924
        5  | 17:59.00 |  6:20.01 |     80925    |   109425
        6  | 24:19.01 |  5:26.59 |    109426    |   133934
        7  | 29:45.60 |  4:50.39 |    133935    |   155723
        8  | 34:36.24 |  5:24.03 |    155724    |   180026
Track  1
     Filename D:\_EAC\Shorty Rogers & His Giants - Clickin' With Clax (1956) [FLAC] {2013 Japan 24-bit Remaster Jazz Best Collection 1000 Series}\01 - Toyland.wav
     Pre-gap length  0:00:02.00
     Peak level 100.0 %
     Extraction speed 1.0 X
     Track quality 100.0 %
     Test CRC A66FDD60
     Copy CRC A66FDD60
     Accurately ripped (confidence 1)  [601B2DB2]  (AR v2)
     Copy OK
Track  2
     Filename D:\_EAC\Shorty Rogers & His Giants - Clickin' With Clax (1956) [FLAC] {2013 Japan 24-bit Remaster Jazz Best Collection 1000 Series}\02 - I Dig Ed.wav
     Pre-gap length  0:00:01.72
     Peak level 100.0 %
     Extraction speed 1.0 X
     Track quality 100.0 %
     Test CRC 3E4F5828
     Copy CRC 3E4F5828
     Accurately ripped (confidence 1)  [CEFE3D2D]  (AR v2)
     Copy OK
Track  3
     Filename D:\_EAC\Shorty Rogers & His Giants - Clickin' With Clax (1956) [FLAC] {2013 Japan 24-bit Remaster Jazz Best Collection 1000 Series}\03 - Adam In New York.wav
     Pre-gap length  0:00:03.18
     Peak level 100.0 %
     Extraction speed 1.1 X
     Track quality 100.0 %
     Test CRC 01DDEBAB
     Copy CRC 01DDEBAB
     Accurately ripped (confidence 1)  [B65C4A49]  (AR v2)
     Copy OK
Track  4
     Filename D:\_EAC\Shorty Rogers & His Giants - Clickin' With Clax (1956) [FLAC] {2013 Japan 24-bit Remaster Jazz Best Collection 1000 Series}\04 - Clickin' With Clax.wav
     Pre-gap length  0:00:03.09
     Peak level 100.0 %
     Extraction speed 1.2 X
     Track quality 99.9 %
     Test CRC 0F8E0233
     Copy CRC 0F8E0233
     Accurately ripped (confidence 1)  [6D96A92D]  (AR v2)
     Copy OK
Track  5
     Filename D:\_EAC\Shorty Rogers & His Giants - Clickin' With Clax (1956) [FLAC] {2013 Japan 24-bit Remaster Jazz Best Collection 1000 Series}\05 - Put The Goodies On.wav
     Pre-gap length  0:00:02.16
     Peak level 100.0 %
     Extraction speed 1.5 X
     Track quality 100.0 %
     Test CRC 946FB2B3
     Copy CRC 946FB2B3
     Accurately ripped (confidence 1)  [10A072C4]  (AR v2)
     Copy OK
Track  6
     Filename D:\_EAC\Shorty Rogers & His Giants - Clickin' With Clax (1956) [FLAC] {2013 Japan 24-bit Remaster Jazz Best Collection 1000 Series}\06 - Our Song.wav
     Pre-gap length  0:00:03.07
     Peak level 100.0 %
     Extraction speed 1.5 X
     Track quality 100.0 %
     Test CRC 9C6BBC48
     Copy CRC 9C6BBC48
     Accurately ripped (confidence 1)  [62D87E68]  (AR v2)
     Copy OK
Track  7
     Filename D:\_EAC\Shorty Rogers & His Giants - Clickin' With Clax (1956) [FLAC] {2013 Japan 24-bit Remaster Jazz Best Collection 1000 Series}\07 - Pete's Meat.wav
     Pre-gap length  0:00:02.54
     Peak level 100.0 %
     Extraction speed 1.4 X
     Track quality 99.9 %
     Test CRC C2AFCF40
     Copy CRC C2AFCF40
     Accurately ripped (confidence 1)  [DDD14954]  (AR v2)
     Copy OK
Track  8
     Filename D:\_EAC\Shorty Rogers & His Giants - Clickin' With Clax (1956) [FLAC] {2013 Japan 24-bit Remaster Jazz Best Collection 1000 Series}\08 - Mike's Peak.wav
     Pre-gap length  0:00:02.29
     Peak level 100.0 %
     Extraction speed 1.5 X
     Track quality 99.9 %
     Test CRC BB4B0535
     Copy CRC BB4B0535
     Accurately ripped (confidence 1)  [F431F0A7]  (AR v2)
     Copy OK
All tracks accurately ripped
No errors occurred
End of status report
==== Log checksum 1A6CE3D8EBD898D0B100040C9FA3771DA60C3C41A7BDFEAB6035F13A0F055D2D ====
 
Содержание индексной карты (.CUE)
REM GENRE Jazz
REM DATE 1956
REM DISCID 5E096008
REM COMMENT "ExactAudioCopy v1.0b4"
PERFORMER "Shorty Rogers And His Giants"
TITLE "Clickin' With Clax"
FILE "01 - Toyland.wav" WAVE
  TRACK 01 AUDIO
    TITLE "Toyland"
    PERFORMER "Shorty Rogers And His Giants"
    INDEX 01 00:00:00
  TRACK 02 AUDIO
    TITLE "I Dig Ed"
    PERFORMER "Shorty Rogers And His Giants"
    INDEX 00 04:06:18
FILE "02 - I Dig Ed.wav" WAVE
    INDEX 01 00:00:00
  TRACK 03 AUDIO
    TITLE "Adam In New York"
    PERFORMER "Shorty Rogers And His Giants"
    INDEX 00 03:07:06
FILE "03 - Adam In New York.wav" WAVE
    INDEX 01 00:00:00
  TRACK 04 AUDIO
    TITLE "Clickin' With Clax"
    PERFORMER "Shorty Rogers And His Giants"
    INDEX 00 03:12:61
FILE "04 - Clickin' With Clax.wav" WAVE
    INDEX 01 00:00:00
  TRACK 05 AUDIO
    TITLE "Put The Goodies On"
    PERFORMER "Shorty Rogers And His Giants"
    INDEX 00 07:22:25
FILE "05 - Put The Goodies On.wav" WAVE
    INDEX 01 00:00:00
  TRACK 06 AUDIO
    TITLE "Our Song"
    PERFORMER "Shorty Rogers And His Giants"
    INDEX 00 06:16:69
FILE "06 - Our Song.wav" WAVE
    INDEX 01 00:00:00
  TRACK 07 AUDIO
    TITLE "Pete's Meat"
    PERFORMER "Shorty Rogers And His Giants"
    INDEX 00 05:24:05
FILE "07 - Pete's Meat.wav" WAVE
    INDEX 01 00:00:00
  TRACK 08 AUDIO
    TITLE "Mike's Peak"
    PERFORMER "Shorty Rogers And His Giants"
    INDEX 00 04:48:10
FILE "08 - Mike's Peak.wav" WAVE
    INDEX 01 00:00:00
Состав:
  • Shorty Rogers — flgn
  • Herb Geller — as
  • Bud Shank — as, bars, bsx
  • Bill Holman — ts
  • Jimmy Giuffre — cl, ts, bars
  • Lou Levy — p
  • Ralph Pena — b
  • Shelly Manne — d
Download available for power users only.
13:18
517
Нет комментариев. Ваш будет первым!