Вы используете незарегистрированную версию компонента "Вкладки"!

Поиск

1957, 1966, 1967 Duke Ellington - Original Album Classics: Such Sweet Thunder '57, Far East Suite '66, And His Mother Called Him Bill '67 (2011) [3CD]

1957, 1966, 1967 Duke Ellington - Original Album Classics: Such Sweet Thunder '57, Far East Suite '66, And His Mother Called Him Bill '67 (2011) [3CD]
Стили:
Треклист:
Носитель: CD
Страна-производитель диска: EU
Год издания: 2011
Издатель (лейбл): Sony Music
Номер по каталогу: 88697739762
Страна: США
Аудиокодек: FLAC (*.flac)
Тип рипа: tracks+.cue
Битрейт аудио: lossless
Продолжительность: 3:47:04
Источник (релизер): zootallure (what)
Наличие сканов в содержимом раздачи: да
 
CD1 - Such Sweet Thunder (1957) {76:55}
01. Such Sweet Thunder (Cleo) - 3:22
02. Sonnet for Caesar - 3:00
03. Sonnet to Hank Cinq - 1:24
04. Lady Mac - 3:41
05. Sonnet in Search of a Moor - 2:22
06. The Telecasters - 3:05
07. Up and Down, Up and Down (I Will Lead Them Up and Down) - 3:09
08. Sonnet for Sister Kate - 2:23
09. The Star-Crossed Lovers - 4:00
10. Madness in Great Ones - 3:26
11. Half the Fun - 4:19
12. Circle of Fourths - 1:50
13. The Star-Crossed Lovers (stereo LP master) - 4:17
14. Circle of Fourths (stereo LP master) - 1:50
15. Suburban Beauty (master take) - 2:58
16. A Flat Minor (preferred take) - 2:36
17. Cafe au lait (preferred take) - 2:45
18. Half the Fun (aka Lately) (alternate take) - 4:12
19. Suburban Beauty (alternate take) - 3:00
20. A Flat Minor (outtakes) - 3:52
21. Cafe au lait (outtakes) - 6:23
22. Pretty Girl (aka The Star-Crossed Lovers) (first recording) - 8:57
23. Pause Track - 0:04
 
 
Лог создания рипа
Exact Audio Copy V1.0 beta 3 from 29. August 2011
EAC extraction logfile from 11. December 2013, 1:37
Duke Ellington & His Orchestra / Such Sweet Thunder
Used drive  : Optiarc DVD RW AD-7260S   Adapter: 2  ID: 0
Read mode               : Secure
Utilize accurate stream : Yes
Defeat audio cache      : Yes
Make use of C2 pointers : No
Read offset correction                      : 48
Overread into Lead-In and Lead-Out          : No
Fill up missing offset samples with silence : Yes
Delete leading and trailing silent blocks   : No
Null samples used in CRC calculations       : Yes
Used interface                              : Native Win32 interface for Win NT & 2000
Gap handling                                : Appended to previous track
Used output format              : User Defined Encoder
Selected bitrate                : 1024 kBit/s
Quality                         : High
Add ID3 tag                     : No
Command line compressor         : C:\Program Files (x86)\Exact Audio Copy\Flac\flac.exe
Additional command line options : -8 -V -T "ARTIST=%artist%" -T "TITLE=%title%" -T "ALBUM=%albumtitle%" -T "DATE=%year%" -T "TRACKNUMBER=%tracknr%" -T "GENRE=%genre%" -T "PERFORMER=%albuminterpret%" -T "COMPOSER=%composer%" %haslyrics%--tag-from-file=LYRICS="%lyricsfile%"%haslyrics% -T "ALBUMARTIST=%albumartist%" -T "DISCNUMBER=%cdnumber%" -T "TOTALDISCS=%totalcds%" -T "TOTALTRACKS=%numtracks%" -T "COMMENT=%comment%" %source% -o %dest%
TOC of the extracted CD
     Track |   Start  |  Length  | Start sector | End sector
    ---------------------------------------------------------
        1  |  0:00.00 |  3:22.08 |         0    |    15157
        2  |  3:22.08 |  2:59.72 |     15158    |    28654
        3  |  6:22.05 |  1:23.65 |     28655    |    34944
        4  |  7:45.70 |  3:40.53 |     34945    |    51497
        5  | 11:26.48 |  2:22.10 |     51498    |    62157
        6  | 13:48.58 |  3:05.30 |     62158    |    76062
        7  | 16:54.13 |  3:09.10 |     76063    |    90247
        8  | 20:03.23 |  2:23.37 |     90248    |   101009
        9  | 22:26.60 |  4:00.00 |    101010    |   119009
       10  | 26:26.60 |  3:26.25 |    119010    |   134484
       11  | 29:53.10 |  4:19.08 |    134485    |   153917
       12  | 34:12.18 |  1:49.65 |    153918    |   162157
       13  | 36:02.08 |  4:16.47 |    162158    |   181404
       14  | 40:18.55 |  1:49.53 |    181405    |   189632
       15  | 42:08.33 |  2:58.27 |    189633    |   203009
       16  | 45:06.60 |  2:35.48 |    203010    |   214682
       17  | 47:42.33 |  2:45.00 |    214683    |   227057
       18  | 50:27.33 |  4:12.10 |    227058    |   245967
       19  | 54:39.43 |  2:59.47 |    245968    |   259439
       20  | 57:39.15 |  3:52.00 |    259440    |   276839
       21  | 61:31.15 |  6:22.38 |    276840    |   305527
       22  | 67:53.53 |  8:57.02 |    305528    |   345804
       23  | 76:50.55 |  0:04.00 |    345805    |   346104
Track  1
     Filename F:\Muzika\upload what\Duke Ellington - Original Album Classics (2011) FLAC\Cd1 - Such Sweet Thunder\01 Such Sweet Thunder (Cleo).wav
     Pre-gap length  0:00:02.00
     Peak level 70.5 %
     Extraction speed 2.4 X
     Track quality 100.0 %
     Test CRC 1A7D8FC0
     Copy CRC 1A7D8FC0
     Accurately ripped (confidence 7)  [D92C1DA4]  (AR v2)
     Copy OK
Track  2
     Filename F:\Muzika\upload what\Duke Ellington - Original Album Classics (2011) FLAC\Cd1 - Such Sweet Thunder\02 Sonnet for Caesar.wav
     Pre-gap length  0:00:02.80
     Peak level 60.2 %
     Extraction speed 2.5 X
     Track quality 100.0 %
     Test CRC 8847B4BC
     Copy CRC 8847B4BC
     Accurately ripped (confidence 7)  [541059CA]  (AR v2)
     Copy OK
Track  3
     Filename F:\Muzika\upload what\Duke Ellington - Original Album Classics (2011) FLAC\Cd1 - Such Sweet Thunder\03 Sonnet to Hank Cinq.wav
     Pre-gap length  0:00:03.76
     Peak level 67.9 %
     Extraction speed 2.2 X
     Track quality 100.0 %
     Test CRC E3B8A6D3
     Copy CRC E3B8A6D3
     Accurately ripped (confidence 7)  [99048362]  (AR v2)
     Copy OK
Track  4
     Filename F:\Muzika\upload what\Duke Ellington - Original Album Classics (2011) FLAC\Cd1 - Such Sweet Thunder\04 Lady Mac.wav
     Pre-gap length  0:00:05.96
     Peak level 85.3 %
     Extraction speed 2.8 X
     Track quality 100.0 %
     Test CRC 3295BC3A
     Copy CRC 3295BC3A
     Accurately ripped (confidence 7)  [7F2FEB04]  (AR v2)
     Copy OK
Track  5
     Filename F:\Muzika\upload what\Duke Ellington - Original Album Classics (2011) FLAC\Cd1 - Such Sweet Thunder\05 Sonnet in Search of a Moor.wav
     Pre-gap length  0:00:05.00
     Peak level 77.3 %
     Extraction speed 2.8 X
     Track quality 100.0 %
     Test CRC 7C662B3C
     Copy CRC 7C662B3C
     Accurately ripped (confidence 7)  [CB54B2FB]  (AR v2)
     Copy OK
Track  6
     Filename F:\Muzika\upload what\Duke Ellington - Original Album Classics (2011) FLAC\Cd1 - Such Sweet Thunder\06 The Telecasters.wav
     Pre-gap length  0:00:02.73
     Peak level 82.2 %
     Extraction speed 3.1 X
     Track quality 100.0 %
     Test CRC CF1DDC80
     Copy CRC CF1DDC80
     Accurately ripped (confidence 7)  [9849BEE0]  (AR v2)
     Copy OK
Track  7
     Filename F:\Muzika\upload what\Duke Ellington - Original Album Classics (2011) FLAC\Cd1 - Such Sweet Thunder\07 Up and Down, Up and Down (I Will Lead Them Up and Down) (Puck).wav
     Pre-gap length  0:00:04.40
     Peak level 82.2 %
     Extraction speed 3.2 X
     Track quality 100.0 %
     Test CRC 7D4E7100
     Copy CRC 7D4E7100
     Accurately ripped (confidence 7)  [952AA8DE]  (AR v2)
     Copy OK
Track  8
     Filename F:\Muzika\upload what\Duke Ellington - Original Album Classics (2011) FLAC\Cd1 - Such Sweet Thunder\08 Sonnet for Sister Kate.wav
     Pre-gap length  0:00:06.64
     Peak level 45.3 %
     Extraction speed 3.2 X
     Track quality 100.0 %
     Test CRC F2650953
     Copy CRC F2650953
     Accurately ripped (confidence 7)  [AF23A601]  (AR v2)
     Copy OK
Track  9
     Filename F:\Muzika\upload what\Duke Ellington - Original Album Classics (2011) FLAC\Cd1 - Such Sweet Thunder\09 The Star-Crossed Lovers (a.k.a. Pretty Girl).wav
     Pre-gap length  0:00:04.53
     Peak level 87.9 %
     Extraction speed 3.2 X
     Track quality 99.9 %
     Test CRC 2202D3DA
     Copy CRC 2202D3DA
     Accurately ripped (confidence 7)  [F59057CD]  (AR v2)
     Copy OK
Track 10
     Filename F:\Muzika\upload what\Duke Ellington - Original Album Classics (2011) FLAC\Cd1 - Such Sweet Thunder\10 Madness in Great Ones (Hamlet).wav
     Peak level 73.5 %
     Extraction speed 3.7 X
     Track quality 100.0 %
     Test CRC 442F770B
     Copy CRC 442F770B
     Accurately ripped (confidence 7)  [49C559E0]  (AR v2)
     Copy OK
Track 11
     Filename F:\Muzika\upload what\Duke Ellington - Original Album Classics (2011) FLAC\Cd1 - Such Sweet Thunder\11 Half the Fun (a.k.a. Lately).wav
     Pre-gap length  0:00:06.40
     Peak level 61.6 %
     Extraction speed 4.0 X
     Track quality 100.0 %
     Test CRC B41BF083
     Copy CRC B41BF083
     Accurately ripped (confidence 7)  [888761C8]  (AR v2)
     Copy OK
Track 12
     Filename F:\Muzika\upload what\Duke Ellington - Original Album Classics (2011) FLAC\Cd1 - Such Sweet Thunder\12 Circle of Fourths.wav
     Pre-gap length  0:00:02.90
     Peak level 53.6 %
     Extraction speed 2.8 X
     Track quality 99.9 %
     Test CRC E94745FE
     Copy CRC E94745FE
     Accurately ripped (confidence 7)  [A47BD8CC]  (AR v2)
     Copy OK
Track 13
     Filename F:\Muzika\upload what\Duke Ellington - Original Album Classics (2011) FLAC\Cd1 - Such Sweet Thunder\13 The Star-Crossed Lovers (a.k.a. Pretty Girl) (stereo LP master).wav
     Pre-gap length  0:00:05.37
     Peak level 73.2 %
     Extraction speed 3.7 X
     Track quality 99.9 %
     Test CRC E1ECE999
     Copy CRC E1ECE999
     Accurately ripped (confidence 7)  [6EA408BB]  (AR v2)
     Copy OK
Track 14
     Filename F:\Muzika\upload what\Duke Ellington - Original Album Classics (2011) FLAC\Cd1 - Such Sweet Thunder\14 Circle of Fourths (stereo LP master).wav
     Pre-gap length  0:00:01.42
     Peak level 71.2 %
     Extraction speed 3.7 X
     Track quality 100.0 %
     Test CRC 6F2CD3C4
     Copy CRC 6F2CD3C4
     Accurately ripped (confidence 7)  [872653B7]  (AR v2)
     Copy OK
Track 15
     Filename F:\Muzika\upload what\Duke Ellington - Original Album Classics (2011) FLAC\Cd1 - Such Sweet Thunder\15 Suburban Beauty (master take).wav
     Pre-gap length  0:00:02.93
     Peak level 84.3 %
     Extraction speed 4.2 X
     Track quality 100.0 %
     Test CRC 35284A77
     Copy CRC 35284A77
     Accurately ripped (confidence 7)  [A1ABE4F6]  (AR v2)
     Copy OK
Track 16
     Filename F:\Muzika\upload what\Duke Ellington - Original Album Classics (2011) FLAC\Cd1 - Such Sweet Thunder\16 A Flat Minor (preferred take).wav
     Pre-gap length  0:00:02.60
     Peak level 80.7 %
     Extraction speed 4.1 X
     Track quality 100.0 %
     Test CRC E8630378
     Copy CRC E8630378
     Accurately ripped (confidence 7)  [1EE81296]  (AR v2)
     Copy OK
Track 17
     Filename F:\Muzika\upload what\Duke Ellington - Original Album Classics (2011) FLAC\Cd1 - Such Sweet Thunder\17 Café au lait (preferred take).wav
     Pre-gap length  0:00:03.06
     Peak level 73.5 %
     Extraction speed 3.6 X
     Track quality 99.9 %
     Test CRC 147987B4
     Copy CRC 147987B4
     Accurately ripped (confidence 7)  [EAA1E653]  (AR v2)
     Copy OK
Track 18
     Filename F:\Muzika\upload what\Duke Ellington - Original Album Classics (2011) FLAC\Cd1 - Such Sweet Thunder\18 Half the Fun (a.k.a. Lately) (alternate take).wav
     Pre-gap length  0:00:00.90
     Peak level 73.0 %
     Extraction speed 4.7 X
     Track quality 100.0 %
     Test CRC DAD29AA2
     Copy CRC DAD29AA2
     Accurately ripped (confidence 7)  [75F03591]  (AR v2)
     Copy OK
Track 19
     Filename F:\Muzika\upload what\Duke Ellington - Original Album Classics (2011) FLAC\Cd1 - Such Sweet Thunder\19 Suburban Beauty (alternate take).wav
     Pre-gap length  0:00:04.64
     Peak level 80.8 %
     Extraction speed 3.9 X
     Track quality 99.9 %
     Test CRC 774EF6E2
     Copy CRC 774EF6E2
     Accurately ripped (confidence 7)  [2561B53A]  (AR v2)
     Copy OK
Track 20
     Filename F:\Muzika\upload what\Duke Ellington - Original Album Classics (2011) FLAC\Cd1 - Such Sweet Thunder\20 A Flat Minor (outtakes).wav
     Pre-gap length  0:00:03.93
     Peak level 89.1 %
     Extraction speed 4.8 X
     Track quality 100.0 %
     Test CRC 5C36E2CA
     Copy CRC 5C36E2CA
     Accurately ripped (confidence 7)  [65DA76C0]  (AR v2)
     Copy OK
Track 21
     Filename F:\Muzika\upload what\Duke Ellington - Original Album Classics (2011) FLAC\Cd1 - Such Sweet Thunder\21 Café au lait (outtakes).wav
     Pre-gap length  0:00:02.80
     Peak level 62.7 %
     Extraction speed 5.3 X
     Track quality 100.0 %
     Test CRC C6B6D800
     Copy CRC C6B6D800
     Accurately ripped (confidence 7)  [D06EACCB]  (AR v2)
     Copy OK
Track 22
     Filename F:\Muzika\upload what\Duke Ellington - Original Album Classics (2011) FLAC\Cd1 - Such Sweet Thunder\22 Pretty Girl (a.k.a. The Star-Crossed Lovers) (first recording).wav
     Pre-gap length  0:00:01.93
     Peak level 89.1 %
     Extraction speed 5.7 X
     Track quality 100.0 %
     Test CRC 600D4E82
     Copy CRC 600D4E82
     Accurately ripped (confidence 7)  [B122F639]  (AR v2)
     Copy OK
Track 23
     Filename F:\Muzika\upload what\Duke Ellington - Original Album Classics (2011) FLAC\Cd1 - Such Sweet Thunder\23 [silence].wav
     Pre-gap length  0:00:02.46
     Peak level 0.0 %
     Extraction speed 0.3 X
     Track quality 97.2 %
     Test CRC 02864C0E
     Copy CRC 02864C0E
     Track not present in AccurateRip database
     Copy OK
22 track(s) accurately ripped
 1 track(s) not present in the AccurateRip database
Some tracks could not be verified as accurate
No errors occurred
End of status report
---- CUETools DB Plugin V2.1.4
[CTDB TOCID: 47DD_b0kRxaI2ogNs1NuSKntLm0-] found
Submit result: 47DD_b0kRxaI2ogNs1NuSKntLm0- has been confirmed
Track | CTDB Status
  1   | (2/2) Accurately ripped
  2   | (2/2) Accurately ripped
  3   | (2/2) Accurately ripped
  4   | (2/2) Accurately ripped
  5   | (2/2) Accurately ripped
  6   | (2/2) Accurately ripped
  7   | (2/2) Accurately ripped
  8   | (2/2) Accurately ripped
  9   | (2/2) Accurately ripped
 10   | (2/2) Accurately ripped
 11   | (2/2) Accurately ripped
 12   | (2/2) Accurately ripped
 13   | (2/2) Accurately ripped
 14   | (2/2) Accurately ripped
 15   | (2/2) Accurately ripped
 16   | (2/2) Accurately ripped
 17   | (2/2) Accurately ripped
 18   | (2/2) Accurately ripped
 19   | (2/2) Accurately ripped
 20   | (2/2) Accurately ripped
 21   | (2/2) Accurately ripped
 22   | (2/2) Accurately ripped
 23   | (2/2) Accurately ripped
==== Log checksum B849C4929016AEEFC33C057744BA3224B5F5661CABBD5A9E31EE31B1EEAA9AA0 ====
 
 
Содержание индексной карты (.CUE)
REM GENRE Jazz
REM DATE 1957
REM DISCID 41120617
REM COMMENT "ExactAudioCopy v1.0b3"
PERFORMER "Duke Ellington"
TITLE "Such Sweet Thunder"
FILE "01 - Such Sweet Thunder (Cleo).wav" WAVE
  TRACK 01 AUDIO
    TITLE "Such Sweet Thunder (Cleo)"
    PERFORMER "Duke Ellington"
    ISRC USSM15700547
    INDEX 01 00:00:00
  TRACK 02 AUDIO
    TITLE "Sonnet for Caesar"
    PERFORMER "Duke Ellington"
    ISRC USSM15700548
    INDEX 00 03:19:23
FILE "02 - Sonnet for Caesar.wav" WAVE
    INDEX 01 00:00:00
  TRACK 03 AUDIO
    TITLE "Sonnet to Hank Cinq"
    PERFORMER "Duke Ellington"
    ISRC USSM15700549
    INDEX 00 02:56:15
FILE "03 - Sonnet to Hank Cinq.wav" WAVE
    INDEX 01 00:00:00
  TRACK 04 AUDIO
    TITLE "Lady Mac"
    PERFORMER "Duke Ellington"
    ISRC USSM15700550
    INDEX 00 01:17:68
FILE "04 - Lady Mac.wav" WAVE
    INDEX 01 00:00:00
  TRACK 05 AUDIO
    TITLE "Sonnet in Search of a Moor"
    PERFORMER "Duke Ellington"
    ISRC USSM15700551
    INDEX 00 03:35:53
FILE "05 - Sonnet in Search of a Moor.wav" WAVE
    INDEX 01 00:00:00
  TRACK 06 AUDIO
    TITLE "The Telecasters"
    PERFORMER "Duke Ellington"
    ISRC USSM15700552
    INDEX 00 02:19:30
FILE "06 - The Telecasters.wav" WAVE
    INDEX 01 00:00:00
  TRACK 07 AUDIO
    TITLE "Up and Down, Up and Down (I Will Lead Them Up and Down)"
    PERFORMER "Duke Ellington"
    ISRC USSM15700553
    INDEX 00 03:01:00
FILE "07 - Up and Down, Up and Down (I Will Lead Them Up and Down).wav" WAVE
    INDEX 01 00:00:00
  TRACK 08 AUDIO
    TITLE "Sonnet for Sister Kate"
    PERFORMER "Duke Ellington"
    ISRC USSM15700554
    INDEX 00 03:02:37
FILE "08 - Sonnet for Sister Kate.wav" WAVE
    INDEX 01 00:00:00
  TRACK 09 AUDIO
    TITLE "The Star-Crossed Lovers"
    PERFORMER "Duke Ellington"
    ISRC USSM15700555
    INDEX 00 02:18:72
FILE "09 - The Star-Crossed Lovers.wav" WAVE
    INDEX 01 00:00:00
    INDEX 02 02:32:00
FILE "10 - Madness in Great Ones.wav" WAVE
  TRACK 10 AUDIO
    TITLE "Madness in Great Ones"
    PERFORMER "Duke Ellington"
    ISRC USSM15700556
    INDEX 01 00:00:00
  TRACK 11 AUDIO
    TITLE "Half the Fun"
    PERFORMER "Duke Ellington"
    ISRC USSM15600380
    INDEX 00 03:19:70
FILE "11 - Half the Fun.wav" WAVE
    INDEX 01 00:00:00
  TRACK 12 AUDIO
    TITLE "Circle of Fourths"
    PERFORMER "Duke Ellington"
    ISRC USSM15700557
    INDEX 00 04:16:15
FILE "12 - Circle of Fourths.wav" WAVE
    INDEX 01 00:00:00
  TRACK 13 AUDIO
    TITLE "The Star-Crossed Lovers (stereo LP master)"
    PERFORMER "Duke Ellington"
    ISRC USSM15700558
    INDEX 00 01:44:37
FILE "13 - The Star-Crossed Lovers (stereo LP master).wav" WAVE
    INDEX 01 00:00:00
    INDEX 02 00:13:50
    INDEX 03 02:47:17
  TRACK 14 AUDIO
    TITLE "Circle of Fourths (stereo LP master)"
    PERFORMER "Duke Ellington"
    ISRC USSM15700559
    INDEX 00 04:15:15
FILE "14 - Circle of Fourths (stereo LP master).wav" WAVE
    INDEX 01 00:00:00
    INDEX 02 01:26:35
    INDEX 03 01:37:18
  TRACK 15 AUDIO
    TITLE "Suburban Beauty (master take)"
    PERFORMER "Duke Ellington"
    ISRC USSM15600381
    INDEX 00 01:46:58
FILE "15 - Suburban Beauty (master take).wav" WAVE
    INDEX 01 00:00:00
  TRACK 16 AUDIO
    TITLE "A Flat Minor (preferred take)"
    PERFORMER "Duke Ellington"
    ISRC USSM15600382
    INDEX 00 02:55:57
FILE "16 - A Flat Minor (preferred take).wav" WAVE
    INDEX 01 00:00:00
  TRACK 17 AUDIO
    TITLE "Cafe au lait (preferred take)"
    PERFORMER "Duke Ellington"
    ISRC USSM15600383
    INDEX 00 02:32:43
FILE "17 - Cafe au lait (preferred take).wav" WAVE
    INDEX 01 00:00:00
  TRACK 18 AUDIO
    TITLE "Half the Fun (aka Lately) (alternate take)"
    PERFORMER "Duke Ellington"
    ISRC USSM15600384
    INDEX 00 02:44:07
FILE "18 - Half the Fun (aka Lately) (alternate take).wav" WAVE
    INDEX 01 00:00:00
  TRACK 19 AUDIO
    TITLE "Suburban Beauty (alternate take)"
    PERFORMER "Duke Ellington"
    ISRC USSM15600385
    INDEX 00 04:07:37
FILE "19 - Suburban Beauty (alternate take).wav" WAVE
    INDEX 01 00:00:00
  TRACK 20 AUDIO
    TITLE "A Flat Minor (outtakes)"
    PERFORMER "Duke Ellington"
    ISRC USSM15600386
    INDEX 00 02:55:52
FILE "20 - A Flat Minor (outtakes).wav" WAVE
    INDEX 01 00:00:00
    INDEX 02 00:17:38
    INDEX 03 00:22:18
    INDEX 04 00:38:50
    INDEX 05 00:54:60
    INDEX 06 01:14:40
  TRACK 21 AUDIO
    TITLE "Cafe au lait (outtakes)"
    PERFORMER "Duke Ellington"
    ISRC USSM15600387
    INDEX 00 03:49:15
FILE "21 - Cafe au lait (outtakes).wav" WAVE
    INDEX 01 00:00:00
    INDEX 02 00:16:00
    INDEX 03 02:40:58
    INDEX 04 03:35:00
  TRACK 22 AUDIO
    TITLE "Pretty Girl (aka The Star-Crossed Lovers) (first recording)"
    PERFORMER "Duke Ellington"
    ISRC USSM15600388
    INDEX 00 06:20:43
FILE "22 - Pretty Girl (aka The Star-Crossed Lovers) (first recording).wav" WAVE
    INDEX 01 00:00:00
    INDEX 02 03:40:20
    INDEX 03 03:42:65
    INDEX 04 05:50:70
    INDEX 05 06:06:02
    INDEX 06 06:11:10
    INDEX 07 06:21:02
    INDEX 08 06:35:12
    INDEX 09 06:48:12
  TRACK 23 AUDIO
    TITLE "Pause Track"
    PERFORMER "Duke Ellington"
    ISRC USLIC0600641
    INDEX 00 08:54:42
FILE "23 - Pause Track.wav" WAVE
    INDEX 01 00:00:00
 
 
Отчет CUETools
[CUETools log; Date: 13.12.2013 4:28:34; Version: 2.1.4]
[CTDB TOCID: 47DD_b0kRxaI2ogNs1NuSKntLm0-] found.
Track | CTDB Status
  1   | (3/3) Accurately ripped
  2   | (3/3) Accurately ripped
  3   | (3/3) Accurately ripped
  4   | (3/3) Accurately ripped
  5   | (3/3) Accurately ripped
  6   | (3/3) Accurately ripped
  7   | (3/3) Accurately ripped
  8   | (3/3) Accurately ripped
  9   | (3/3) Accurately ripped
 10   | (3/3) Accurately ripped
 11   | (3/3) Accurately ripped
 12   | (3/3) Accurately ripped
 13   | (3/3) Accurately ripped
 14   | (3/3) Accurately ripped
 15   | (3/3) Accurately ripped
 16   | (3/3) Accurately ripped
 17   | (3/3) Accurately ripped
 18   | (3/3) Accurately ripped
 19   | (3/3) Accurately ripped
 20   | (3/3) Accurately ripped
 21   | (3/3) Accurately ripped
 22   | (3/3) Accurately ripped
 23   | (3/3) Accurately ripped
[AccurateRip ID: 003a5c8d-03db4237-41120617] found.
Track   [  CRC   |   V2   ] Status
 01     [893a6d10|d92c1da4] (00+07/20) Accurately ripped
 02     [8a758f21|541059ca] (00+07/20) Accurately ripped
 03     [fef6a992|99048362] (00+07/20) Accurately ripped
 04     [e7038c83|7f2feb04] (00+07/20) Accurately ripped
 05     [84f8c0d1|cb54b2fb] (00+07/20) Accurately ripped
 06     [d5234d5b|9849bee0] (00+07/20) Accurately ripped
 07     [e99a5449|952aa8de] (00+07/20) Accurately ripped
 08     [667e9d38|af23a601] (00+07/20) Accurately ripped
 09     [18f4ca34|f59057cd] (00+07/20) Accurately ripped
 10     [4fec06fe|49c559e0] (00+07/20) Accurately ripped
 11     [6287b4b0|888761c8] (00+07/20) Accurately ripped
 12     [f29918ef|a47bd8cc] (00+07/20) Accurately ripped
 13     [7d0da601|6ea408bb] (00+07/20) Accurately ripped
 14     [a0d07bfb|872653b7] (00+07/20) Accurately ripped
 15     [24ee17f4|a1abe4f6] (00+07/20) Accurately ripped
 16     [dcdd6400|1ee81296] (00+07/20) Accurately ripped
 17     [2604bdb9|eaa1e653] (00+07/20) Accurately ripped
 18     [dc0e79ce|75f03591] (00+07/20) Accurately ripped
 19     [d54c8bfd|2561b53a] (00+07/20) Accurately ripped
 20     [9302ce38|65da76c0] (00+07/20) Accurately ripped
 21     [dfe81286|d06eaccb] (00+07/20) Accurately ripped
 22     [3e6558d9|b122f639] (00+07/22) Accurately ripped
 23     [00000000|00000000] (00+00/00) Silent track
Offsetted by 48:
 01     [86b4d66c] (13/20) Accurately ripped
 02     [bc65484a] (13/20) Accurately ripped
 03     [3c9d095d] (13/20) Accurately ripped
 04     [955737ff] (13/20) Accurately ripped
 05     [34c5cd96] (13/20) Accurately ripped
 06     [498bda96] (13/20) Accurately ripped
 07     [3913efa9] (13/20) Accurately ripped
 08     [646fade4] (13/20) Accurately ripped
 09     [de897d7c] (13/20) Accurately ripped
 10     [a3dcdc5c] (13/20) Accurately ripped
 11     [d3b75e2c] (13/20) Accurately ripped
 12     [4551e8c9] (13/20) Accurately ripped
 13     [af389241] (13/20) Accurately ripped
 14     [6e3b548b] (13/20) Accurately ripped
 15     [e44c80a4] (13/20) Accurately ripped
 16     [88e14db0] (13/20) Accurately ripped
 17     [1a1572d9] (13/20) Accurately ripped
 18     [a7b2018e] (13/20) Accurately ripped
 19     [80bfea8d] (13/20) Accurately ripped
 20     [3281fa88] (13/20) Accurately ripped
 21     [f509ab46] (13/20) Accurately ripped
 22     [02f1d229] (13/22) Accurately ripped
 23     [00000000] (00/00) Silent track
Track Peak [ CRC32  ] [W/O NULL] [  LOG   ]
 --   89,1 [4CF3AA19] [D930D44B]
 01   70,4 [1A7D8FC0] [5139E501]   CRC32
 02   60,2 [8847B4BC] [6BF85DFD]   CRC32
 03   67,9 [E3B8A6D3] [0911B3CF]   CRC32
 04   85,3 [3295BC3A] [81BB9571]   CRC32
 05   77,3 [7C662B3C] [17C3903B]   CRC32
 06   82,2 [CF1DDC80] [42336268]   CRC32
 07   82,2 [7D4E7100] [F0DE6B73]   CRC32
 08   45,3 [F2650953] [71B9C7FA]   CRC32
 09   87,9 [2202D3DA] [4FC38B8B]   CRC32
 10   73,5 [442F770B] [D40E8BA5]   CRC32
 11   61,6 [B41BF083] [EBAB30CD]   CRC32
 12   53,6 [E94745FE] [10333A9C]   CRC32
 13   73,2 [E1ECE999] [4BCC1E12]   CRC32
 14   71,2 [6F2CD3C4] [1948EDB9]   CRC32
 15   84,3 [35284A77] [6388DB7C]   CRC32
 16   80,7 [E8630378] [ADEBF2BE]   CRC32
 17   73,5 [147987B4] [0610CCCB]   CRC32
 18   73,0 [DAD29AA2] [F7C3A2BB]   CRC32
 19   80,8 [774EF6E2] [489E56A2]   CRC32
 20   89,1 [5C36E2CA] [99724EE7]   CRC32
 21   62,7 [C6B6D800] [98A15C6F]   CRC32
 22   89,1 [600D4E82] [04D335C0]   CRC32
 23    0,0 [02864C0E] [00000000]   CRC32
 
 
CD2 - Far East Suite (1966) {77:37}
01. Tourist Point of View - 5:18
02. Bluebird of Delhi (Mynah) - 3:17
03. Isfahan - 4:10
04. Depk - 2:54
05. Mount Harissa - 7:46
06. Blue Pepper (Far East of the Blues) - 3:05
07. Agra - 2:40
08. Amad - 4:32
09. Ad Lib on Nippon - 11:36
10. Tourist Point of View (take 4) - 5:21
11. Amad (take 7) - 4:16
12. Bluebird of Delhi (take 8) - 3:18
13. Bluebird of Delhi (Mynah) (take 9) - 3:25
14. Isfahan (take 2) - 4:21
15. Depk (take 15) - 2:50
16. Mount Harissa (take 4) - 8:48
 
 
Лог создания рипа
Exact Audio Copy V1.0 beta 3 from 29. August 2011
EAC extraction logfile from 11. December 2013, 9:42
Duke Ellington & His Orchestra / Far East Suite
Used drive  : Optiarc DVD RW AD-7260S   Adapter: 2  ID: 0
Read mode               : Secure
Utilize accurate stream : Yes
Defeat audio cache      : Yes
Make use of C2 pointers : No
Read offset correction                      : 48
Overread into Lead-In and Lead-Out          : No
Fill up missing offset samples with silence : Yes
Delete leading and trailing silent blocks   : No
Null samples used in CRC calculations       : Yes
Used interface                              : Native Win32 interface for Win NT & 2000
Gap handling                                : Appended to previous track
Used output format              : User Defined Encoder
Selected bitrate                : 1024 kBit/s
Quality                         : High
Add ID3 tag                     : No
Command line compressor         : C:\Program Files (x86)\Exact Audio Copy\Flac\flac.exe
Additional command line options : -8 -V -T "ARTIST=%artist%" -T "TITLE=%title%" -T "ALBUM=%albumtitle%" -T "DATE=%year%" -T "TRACKNUMBER=%tracknr%" -T "GENRE=%genre%" -T "PERFORMER=%albuminterpret%" -T "COMPOSER=%composer%" %haslyrics%--tag-from-file=LYRICS="%lyricsfile%"%haslyrics% -T "ALBUMARTIST=%albumartist%" -T "DISCNUMBER=%cdnumber%" -T "TOTALDISCS=%totalcds%" -T "TOTALTRACKS=%numtracks%" -T "COMMENT=%comment%" %source% -o %dest%
TOC of the extracted CD
     Track |   Start  |  Length  | Start sector | End sector
    ---------------------------------------------------------
        1  |  0:00.00 |  5:17.65 |         0    |    23839
        2  |  5:17.65 |  3:17.30 |     23840    |    38644
        3  |  8:35.20 |  4:10.17 |     38645    |    57411
        4  | 12:45.37 |  2:54.23 |     57412    |    70484
        5  | 15:39.60 |  7:45.40 |     70485    |   105399
        6  | 23:25.25 |  3:05.32 |    105400    |   119306
        7  | 26:30.57 |  2:40.35 |    119307    |   131341
        8  | 29:11.17 |  4:31.55 |    131342    |   151721
        9  | 33:42.72 | 11:35.60 |    151722    |   203906
       10  | 45:18.57 |  5:21.08 |    203907    |   227989
       11  | 50:39.65 |  4:16.32 |    227990    |   247221
       12  | 54:56.22 |  3:18.00 |    247222    |   262071
       13  | 58:14.22 |  3:24.40 |    262072    |   277411
       14  | 61:38.62 |  4:20.60 |    277412    |   296971
       15  | 65:59.47 |  2:49.73 |    296972    |   309719
       16  | 68:49.45 |  8:47.40 |    309720    |   349284
Track  1
     Filename F:\Muzika\upload what\Duke Ellington - Original Album Classics (2011) FLAC\Cd3 - Far East Suite\01 Tourist Point of View.wav
     Pre-gap length  0:00:02.00
     Peak level 89.1 %
     Extraction speed 2.6 X
     Track quality 100.0 %
     Test CRC 3FA9943E
     Copy CRC 3FA9943E
     Accurately ripped (confidence 8)  [AB3BF02D]  (AR v2)
     Copy OK
Track  2
     Filename F:\Muzika\upload what\Duke Ellington - Original Album Classics (2011) FLAC\Cd3 - Far East Suite\02 Bluebird of Delhi (Mynah).wav
     Pre-gap length  0:00:03.53
     Peak level 100.0 %
     Extraction speed 2.7 X
     Track quality 100.0 %
     Test CRC 4B7518D1
     Copy CRC 4B7518D1
     Accurately ripped (confidence 8)  [DBD3CCEB]  (AR v2)
     Copy OK
Track  3
     Filename F:\Muzika\upload what\Duke Ellington - Original Album Classics (2011) FLAC\Cd3 - Far East Suite\03 Isfahan.wav
     Pre-gap length  0:00:03.57
     Peak level 94.8 %
     Extraction speed 3.0 X
     Track quality 100.0 %
     Test CRC 2DA79A2C
     Copy CRC 2DA79A2C
     Accurately ripped (confidence 8)  [FE64AAAB]  (AR v2)
     Copy OK
Track  4
     Filename F:\Muzika\upload what\Duke Ellington - Original Album Classics (2011) FLAC\Cd3 - Far East Suite\04 Depk.wav
     Pre-gap length  0:00:02.56
     Peak level 100.0 %
     Extraction speed 2.5 X
     Track quality 99.9 %
     Test CRC D5ABB9B0
     Copy CRC D5ABB9B0
     Accurately ripped (confidence 8)  [10A62FDD]  (AR v2)
     Copy OK
Track  5
     Filename F:\Muzika\upload what\Duke Ellington - Original Album Classics (2011) FLAC\Cd3 - Far East Suite\05 Mount Harissa.wav
     Pre-gap length  0:00:03.26
     Peak level 100.0 %
     Extraction speed 3.6 X
     Track quality 100.0 %
     Test CRC 7AD2AC04
     Copy CRC 7AD2AC04
     Accurately ripped (confidence 8)  [353A90BD]  (AR v2)
     Copy OK
Track  6
     Filename F:\Muzika\upload what\Duke Ellington - Original Album Classics (2011) FLAC\Cd3 - Far East Suite\06 Blue Pepper (Far East of the Blues).wav
     Pre-gap length  0:00:02.24
     Peak level 100.0 %
     Extraction speed 3.5 X
     Track quality 100.0 %
     Test CRC 6127ECF1
     Copy CRC 6127ECF1
     Accurately ripped (confidence 8)  [CA798D5F]  (AR v2)
     Copy OK
Track  7
     Filename F:\Muzika\upload what\Duke Ellington - Original Album Classics (2011) FLAC\Cd3 - Far East Suite\07 Agra.wav
     Pre-gap length  0:00:03.09
     Peak level 73.0 %
     Extraction speed 3.5 X
     Track quality 100.0 %
     Test CRC 8DF06286
     Copy CRC 8DF06286
     Accurately ripped (confidence 8)  [46917385]  (AR v2)
     Copy OK
Track  8
     Filename F:\Muzika\upload what\Duke Ellington - Original Album Classics (2011) FLAC\Cd3 - Far East Suite\08 Amad.wav
     Pre-gap length  0:00:02.80
     Peak level 100.0 %
     Extraction speed 4.0 X
     Track quality 100.0 %
     Test CRC D2FF808D
     Copy CRC D2FF808D
     Accurately ripped (confidence 8)  [4352AAE6]  (AR v2)
     Copy OK
Track  9
     Filename F:\Muzika\upload what\Duke Ellington - Original Album Classics (2011) FLAC\Cd3 - Far East Suite\09 Ad Lib on Nippon.wav
     Pre-gap length  0:00:03.00
     Peak level 100.0 %
     Extraction speed 4.6 X
     Track quality 100.0 %
     Test CRC 8840DACA
     Copy CRC 8840DACA
     Accurately ripped (confidence 8)  [633FDA05]  (AR v2)
     Copy OK
Track 10
     Filename F:\Muzika\upload what\Duke Ellington - Original Album Classics (2011) FLAC\Cd3 - Far East Suite\10 Tourist Point of View (alternate take).wav
     Pre-gap length  0:00:01.76
     Peak level 100.0 %
     Extraction speed 4.6 X
     Track quality 100.0 %
     Test CRC 80062D7D
     Copy CRC 80062D7D
     Accurately ripped (confidence 8)  [CDB1F93F]  (AR v2)
     Copy OK
Track 11
     Filename F:\Muzika\upload what\Duke Ellington - Original Album Classics (2011) FLAC\Cd3 - Far East Suite\11 Amad (alternate take).wav
     Pre-gap length  0:00:03.24
     Peak level 91.9 %
     Extraction speed 4.7 X
     Track quality 100.0 %
     Test CRC 9F3CFBAE
     Copy CRC 9F3CFBAE
     Accurately ripped (confidence 8)  [88C2E1F3]  (AR v2)
     Copy OK
Track 12
     Filename F:\Muzika\upload what\Duke Ellington - Original Album Classics (2011) FLAC\Cd3 - Far East Suite\12 Bluebird of Delhi (Mynah) (alternate take 1).wav
     Pre-gap length  0:00:02.06
     Peak level 100.0 %
     Extraction speed 4.7 X
     Track quality 100.0 %
     Test CRC EC76D7AC
     Copy CRC EC76D7AC
     Accurately ripped (confidence 8)  [2B4BA882]  (AR v2)
     Copy OK
Track 13
     Filename F:\Muzika\upload what\Duke Ellington - Original Album Classics (2011) FLAC\Cd3 - Far East Suite\13 Bluebird of Delhi (Mynah) (alternate take 2).wav
     Pre-gap length  0:00:03.26
     Peak level 96.2 %
     Extraction speed 4.1 X
     Track quality 99.9 %
     Test CRC C8A39BEA
     Copy CRC C8A39BEA
     Accurately ripped (confidence 8)  [C0843C32]  (AR v2)
     Copy OK
Track 14
     Filename F:\Muzika\upload what\Duke Ellington - Original Album Classics (2011) FLAC\Cd3 - Far East Suite\14 Isfahan (alternate take).wav
     Pre-gap length  0:00:03.26
     Peak level 82.6 %
     Extraction speed 5.0 X
     Track quality 100.0 %
     Test CRC B590B2BE
     Copy CRC B590B2BE
     Accurately ripped (confidence 8)  [9E9ED869]  (AR v2)
     Copy OK
Track 15
     Filename F:\Muzika\upload what\Duke Ellington - Original Album Classics (2011) FLAC\Cd3 - Far East Suite\15 Depk (alternate take).wav
     Pre-gap length  0:00:03.73
     Peak level 100.0 %
     Extraction speed 4.1 X
     Track quality 99.9 %
     Test CRC CA9E9726
     Copy CRC CA9E9726
     Accurately ripped (confidence 8)  [6EBE08E2]  (AR v2)
     Copy OK
Track 16
     Filename F:\Muzika\upload what\Duke Ellington - Original Album Classics (2011) FLAC\Cd3 - Far East Suite\16 Mount Harissa (alternate take).wav
     Pre-gap length  0:00:04.00
     Peak level 100.0 %
     Extraction speed 5.3 X
     Track quality 99.9 %
     Test CRC E0F5076F
     Copy CRC E0F5076F
     Accurately ripped (confidence 7)  [2CDFBB09]  (AR v2)
     Copy OK
All tracks accurately ripped
No errors occurred
End of status report
---- CUETools DB Plugin V2.1.4
[CTDB TOCID: wBoGPm2hDTkQXpLGVHsI9TGYYbw-] found
Submit result: wBoGPm2hDTkQXpLGVHsI9TGYYbw- has been confirmed
Track | CTDB Status
  1   | (11/11) Accurately ripped
  2   | (11/11) Accurately ripped
  3   | (11/11) Accurately ripped
  4   | (11/11) Accurately ripped
  5   | (11/11) Accurately ripped
  6   | (11/11) Accurately ripped
  7   | (11/11) Accurately ripped
  8   | (11/11) Accurately ripped
  9   | (11/11) Accurately ripped
 10   | (11/11) Accurately ripped
 11   | (11/11) Accurately ripped
 12   | (11/11) Accurately ripped
 13   | (11/11) Accurately ripped
 14   | (11/11) Accurately ripped
 15   | (11/11) Accurately ripped
 16   | (11/11) Accurately ripped
==== Log checksum EDCA460B5428DB52BFEEA767DE9F8E0E39FDBF73723733618E90BF6EB351E5AC ====
 
 
Содержание индексной карты (.CUE)
REM GENRE Jazz
REM DATE 1966
REM DISCID D8123110
REM COMMENT "ExactAudioCopy v1.0b3"
PERFORMER "Duke Ellington"
TITLE "Far East Suite"
FILE "01 - Tourist Point of View.wav" WAVE
  TRACK 01 AUDIO
    TITLE "Tourist Point of View"
    PERFORMER "Duke Ellington"
    ISRC USBB16601026
    INDEX 01 00:00:00
  TRACK 02 AUDIO
    TITLE "Bluebird of Delhi (Mynah)"
    PERFORMER "Duke Ellington"
    ISRC USBB16601027
    INDEX 00 05:14:25
FILE "02 - Bluebird of Delhi (Mynah).wav" WAVE
    INDEX 01 00:00:00
  TRACK 03 AUDIO
    TITLE "Isfahan"
    PERFORMER "Duke Ellington"
    ISRC USBB16601038
    INDEX 00 03:13:62
FILE "03 - Isfahan.wav" WAVE
    INDEX 01 00:00:00
  TRACK 04 AUDIO
    TITLE "Depk"
    PERFORMER "Duke Ellington"
    ISRC USBB16601028
    INDEX 00 04:07:50
FILE "04 - Depk.wav" WAVE
    INDEX 01 00:00:00
  TRACK 05 AUDIO
    TITLE "Mount Harissa"
    PERFORMER "Duke Ellington"
    ISRC USBB16601029
    INDEX 00 02:51:03
FILE "05 - Mount Harissa.wav" WAVE
    INDEX 01 00:00:00
  TRACK 06 AUDIO
    TITLE "Blue Pepper (Far East of the Blues)"
    PERFORMER "Duke Ellington"
    ISRC USBB16601030
    INDEX 00 07:43:22
FILE "06 - Blue Pepper (Far East of the Blues).wav" WAVE
    INDEX 01 00:00:00
  TRACK 07 AUDIO
    TITLE "Agra"
    PERFORMER "Duke Ellington"
    ISRC USBB16601031
    INDEX 00 03:02:25
FILE "07 - Agra.wav" WAVE
    INDEX 01 00:00:00
  TRACK 08 AUDIO
    TITLE "Amad"
    PERFORMER "Duke Ellington"
    ISRC USBB16601032
    INDEX 00 02:37:50
FILE "08 - Amad.wav" WAVE
    INDEX 01 00:00:00
  TRACK 09 AUDIO
    TITLE "Ad Lib on Nippon"
    PERFORMER "Duke Ellington"
    ISRC USBB16601033
    INDEX 00 04:28:55
FILE "09 - Ad Lib on Nippon.wav" WAVE
    INDEX 01 00:00:00
  TRACK 10 AUDIO
    TITLE "Tourist Point of View (take 4)"
    PERFORMER "Duke Ellington"
    ISRC USBB10300658
    INDEX 00 11:34:03
FILE "10 - Tourist Point of View (take 4).wav" WAVE
    INDEX 01 00:00:00
  TRACK 11 AUDIO
    TITLE "Amad (take 7)"
    PERFORMER "Duke Ellington"
    ISRC USBB10300659
    INDEX 00 05:17:65
FILE "11 - Amad (take 7).wav" WAVE
    INDEX 01 00:00:00
  TRACK 12 AUDIO
    TITLE "Bluebird of Delhi (take 8)"
    PERFORMER "Duke Ellington"
    ISRC USBB16601035
    INDEX 00 04:14:27
FILE "12 - Bluebird of Delhi (take 8).wav" WAVE
    INDEX 01 00:00:00
  TRACK 13 AUDIO
    TITLE "Bluebird of Delhi (Mynah) (take 9)"
    PERFORMER "Duke Ellington"
    ISRC USBB10300660
    INDEX 00 03:14:55
FILE "13 - Bluebird of Delhi (Mynah) (take 9).wav" WAVE
    INDEX 01 00:00:00
  TRACK 14 AUDIO
    TITLE "Isfahan (take 2)"
    PERFORMER "Duke Ellington"
    ISRC USBB16601036
    INDEX 00 03:21:20
FILE "14 - Isfahan (take 2).wav" WAVE
    INDEX 01 00:00:00
  TRACK 15 AUDIO
    TITLE "Depk (take 15)"
    PERFORMER "Duke Ellington"
    ISRC USBB10300661
    INDEX 00 04:17:05
FILE "15 - Depk (take 15).wav" WAVE
    INDEX 01 00:00:00
  TRACK 16 AUDIO
    TITLE "Mount Harissa (take 4)"
    PERFORMER "Duke Ellington"
    ISRC USBB10300662
    INDEX 00 02:45:73
FILE "16 - Mount Harissa (take 4).wav" WAVE
    INDEX 01 00:00:00
 
 
Отчет CUETools
[CUETools log; Date: 13.12.2013 4:28:59; Version: 2.1.4]
[CTDB TOCID: wBoGPm2hDTkQXpLGVHsI9TGYYbw-] found.
Track | CTDB Status
  1   | (12/12) Accurately ripped
  2   | (12/12) Accurately ripped
  3   | (12/12) Accurately ripped
  4   | (12/12) Accurately ripped
  5   | (12/12) Accurately ripped
  6   | (12/12) Accurately ripped
  7   | (12/12) Accurately ripped
  8   | (12/12) Accurately ripped
  9   | (12/12) Accurately ripped
 10   | (12/12) Accurately ripped
 11   | (12/12) Accurately ripped
 12   | (12/12) Accurately ripped
 13   | (12/12) Accurately ripped
 14   | (12/12) Accurately ripped
 15   | (12/12) Accurately ripped
 16   | (12/12) Accurately ripped
[AccurateRip ID: 002bd59d-0212ba31-d8123110] found.
Track   [  CRC   |   V2   ] Status
 01     [88f356d5|ab3bf02d] (00+08/39) Accurately ripped
 02     [8cb853a7|dbd3cceb] (00+08/39) Accurately ripped
 03     [cb45de50|fe64aaab] (00+08/39) Accurately ripped
 04     [d20626c3|10a62fdd] (00+08/39) Accurately ripped
 05     [ec795156|353a90bd] (00+08/39) Accurately ripped
 06     [b02b62a6|ca798d5f] (00+08/39) Accurately ripped
 07     [cf973bcf|46917385] (00+08/39) Accurately ripped
 08     [02b34ea7|4352aae6] (00+08/39) Accurately ripped
 09     [ce85c22d|633fda05] (00+08/39) Accurately ripped
 10     [a62ff135|cdb1f93f] (00+08/38) Accurately ripped
 11     [5c5e438f|88c2e1f3] (00+08/38) Accurately ripped
 12     [4a18ae92|2b4ba882] (00+08/37) Accurately ripped
 13     [322a7c43|c0843c32] (00+08/37) Accurately ripped
 14     [d325034d|9e9ed869] (00+08/38) Accurately ripped
 15     [50e6bc19|6ebe08e2] (00+08/38) Accurately ripped
 16     [e424f163|2cdfbb09] (00+07/37) Accurately ripped
Offsetted by -634:
 01     [15d8c94d] (05/39) Accurately ripped
 02     [e851cc47] (05/39) Accurately ripped
 03     [01f6d6c2] (05/39) Accurately ripped
 04     [da6eac8f] (05/39) Accurately ripped
 05     [799a54e2] (05/39) Accurately ripped
 06     [9dd7e6ac] (05/39) Accurately ripped
 07     [614d1d8f] (05/39) Accurately ripped
 08     [8900176d] (05/39) Accurately ripped
 09     [98b1eea3] (05/39) Accurately ripped
 10     [09a22255] (05/38) Accurately ripped
 11     [72b5b167] (05/38) Accurately ripped
 12     [5cfc3be4] (05/37) Accurately ripped
 13     [c4b7c207] (05/37) Accurately ripped
 14     [924fc09d] (05/38) Accurately ripped
 15     [68377401] (05/38) Accurately ripped
 16     [ed3237b7] (05/37) Accurately ripped
Offsetted by 12:
 01     [fe9c9fc5] (15/39) Accurately ripped
 02     [37ce74e7] (15/39) Accurately ripped
 03     [818e6e34] (15/39) Accurately ripped
 04     [c422dc5b] (15/39) Accurately ripped
 05     [12fd226e] (15/39) Accurately ripped
 06     [d26f2fb2] (15/39) Accurately ripped
 07     [5af71f4f] (15/39) Accurately ripped
 08     [8bde4533] (15/39) Accurately ripped
 09     [b8ede819] (15/39) Accurately ripped
 10     [31a14375] (14/38) Accurately ripped
 11     [9bbe533f] (14/38) Accurately ripped
 12     [679e7836] (13/37) Accurately ripped
 13     [548a55cb] (13/37) Accurately ripped
 14     [d93795ed] (14/38) Accurately ripped
 15     [39d917e9] (14/38) Accurately ripped
 16     [9337440b] (14/37) Accurately ripped
Track Peak [ CRC32  ] [W/O NULL] [  LOG   ]
 --  100,0 [BDD4CA12] [C857811B]
 01   89,1 [3FA9943E] [DC6F0BA6]   CRC32
 02  100,0 [4B7518D1] [50F58395]   CRC32
 03   94,8 [2DA79A2C] [FE4AC66D]   CRC32
 04  100,0 [D5ABB9B0] [A0908F64]   CRC32
 05  100,0 [7AD2AC04] [079C252B]   CRC32
 06  100,0 [6127ECF1] [C8BACD0E]   CRC32
 07   73,0 [8DF06286] [E516ADB7]   CRC32
 08  100,0 [D2FF808D] [D92EAFA2]   CRC32
 09  100,0 [8840DACA] [F3D14BAF]   CRC32
 10  100,0 [80062D7D] [B4164F4E]   CRC32
 11   91,9 [9F3CFBAE] [D704F3A8]   CRC32
 12  100,0 [EC76D7AC] [7F6AD3D8]   CRC32
 13   96,2 [C8A39BEA] [D8FF2314]   CRC32
 14   82,6 [B590B2BE] [E7872054]   CRC32
 15  100,0 [CA9E9726] [D57AA9EE]   CRC32
 16  100,0 [E0F5076F] [D25998C4]   CRC32
 
 
CD3 - And His Mother Called Him Bill (1967) {72:33}
01. Snibor - 4:16
02. Boo-Dah - 3:28
03. Blood Count - 4:18
04. U.M.M.G. - 3:15
05. Charpoy - 3:08
06. After All - 3:53
07. The Intimacy of the Blues - 2:59
08. Rain Check - 4:37
09. Day Dream - 4:25
10. Rock Skippin' at the Blue Note - 3:03
11. All Day Long - 2:58
12. Lotus Blossom - 3:56
13. Acht O'Clock Rock - 2:26
14. Rain Check (take 4) - 5:23
15. Smada (take 3) - 3:21
16. Smada (take 4) - 3:21
17. Midriff - 04:36
18. My Little Brown Book - 4:14
19. Lotus Blossom (test) - 4:56
 
 
Лог создания рипа
Exact Audio Copy V1.0 beta 3 from 29. August 2011
EAC extraction logfile from 11. December 2013, 8:27
Duke Ellington & His Orchestra / ...and His Mother Called Him Bill
Used drive  : Optiarc DVD RW AD-7260S   Adapter: 2  ID: 0
Read mode               : Secure
Utilize accurate stream : Yes
Defeat audio cache      : Yes
Make use of C2 pointers : No
Read offset correction                      : 48
Overread into Lead-In and Lead-Out          : No
Fill up missing offset samples with silence : Yes
Delete leading and trailing silent blocks   : No
Null samples used in CRC calculations       : Yes
Used interface                              : Native Win32 interface for Win NT & 2000
Gap handling                                : Appended to previous track
Used output format              : User Defined Encoder
Selected bitrate                : 1024 kBit/s
Quality                         : High
Add ID3 tag                     : No
Command line compressor         : C:\Program Files (x86)\Exact Audio Copy\Flac\flac.exe
Additional command line options : -8 -V -T "ARTIST=%artist%" -T "TITLE=%title%" -T "ALBUM=%albumtitle%" -T "DATE=%year%" -T "TRACKNUMBER=%tracknr%" -T "GENRE=%genre%" -T "PERFORMER=%albuminterpret%" -T "COMPOSER=%composer%" %haslyrics%--tag-from-file=LYRICS="%lyricsfile%"%haslyrics% -T "ALBUMARTIST=%albumartist%" -T "DISCNUMBER=%cdnumber%" -T "TOTALDISCS=%totalcds%" -T "TOTALTRACKS=%numtracks%" -T "COMMENT=%comment%" %source% -o %dest%
TOC of the extracted CD
     Track |   Start  |  Length  | Start sector | End sector
    ---------------------------------------------------------
        1  |  0:00.00 |  4:15.70 |         0    |    19194
        2  |  4:15.70 |  3:28.37 |     19195    |    34831
        3  |  7:44.32 |  4:18.25 |     34832    |    54206
        4  | 12:02.57 |  3:14.50 |     54207    |    68806
        5  | 15:17.32 |  3:08.00 |     68807    |    82906
        6  | 18:25.32 |  3:52.60 |     82907    |   100366
        7  | 22:18.17 |  2:58.58 |    100367    |   113774
        8  | 25:17.00 |  4:37.35 |    113775    |   134584
        9  | 29:54.35 |  4:25.00 |    134585    |   154459
       10  | 34:19.35 |  3:02.50 |    154460    |   168159
       11  | 37:22.10 |  2:57.72 |    168160    |   181506
       12  | 40:20.07 |  3:56.15 |    181507    |   199221
       13  | 44:16.22 |  2:25.38 |    199222    |   210134
       14  | 46:41.60 |  5:23.12 |    210135    |   234371
       15  | 52:04.72 |  3:21.25 |    234372    |   249471
       16  | 55:26.22 |  3:20.48 |    249472    |   264519
       17  | 58:46.70 |  4:35.52 |    264520    |   285196
       18  | 63:22.47 |  4:14.00 |    285197    |   304246
       19  | 67:36.47 |  4:55.58 |    304247    |   326429
Track  1
     Filename F:\Muzika\upload what\Duke Ellington - Original Album Classics (2011) FLAC\Cd2 - ...and His Mother Called HIm Bill\01 Snibor.wav
     Pre-gap length  0:00:02.00
     Peak level 97.7 %
     Extraction speed 2.2 X
     Track quality 99.9 %
     Test CRC 50CA68EB
     Copy CRC 50CA68EB
     Accurately ripped (confidence 7)  [ACC63CFF]  (AR v2)
     Copy OK
Track  2
     Filename F:\Muzika\upload what\Duke Ellington - Original Album Classics (2011) FLAC\Cd2 - ...and His Mother Called HIm Bill\02 Boo-Dah.wav
     Pre-gap length  0:00:02.26
     Peak level 99.4 %
     Extraction speed 2.3 X
     Track quality 99.9 %
     Test CRC 4D8114BD
     Copy CRC 4D8114BD
     Accurately ripped (confidence 7)  [B8D70C80]  (AR v2)
     Copy OK
Track  3
     Filename F:\Muzika\upload what\Duke Ellington - Original Album Classics (2011) FLAC\Cd2 - ...and His Mother Called HIm Bill\03 Blood Count.wav
     Pre-gap length  0:00:02.93
     Peak level 94.2 %
     Extraction speed 3.0 X
     Track quality 100.0 %
     Test CRC 5304C79E
     Copy CRC 5304C79E
     Accurately ripped (confidence 7)  [D1F063B1]  (AR v2)
     Copy OK
Track  4
     Filename F:\Muzika\upload what\Duke Ellington - Original Album Classics (2011) FLAC\Cd2 - ...and His Mother Called HIm Bill\04 U.M.M.G. (Upper Manhattan Medical Group).wav
     Pre-gap length  0:00:01.46
     Peak level 99.4 %
     Extraction speed 3.0 X
     Track quality 100.0 %
     Test CRC 994AA7E8
     Copy CRC 994AA7E8
     Accurately ripped (confidence 7)  [1C85582D]  (AR v2)
     Copy OK
Track  5
     Filename F:\Muzika\upload what\Duke Ellington - Original Album Classics (2011) FLAC\Cd2 - ...and His Mother Called HIm Bill\05 Charpoy.wav
     Peak level 99.4 %
     Extraction speed 3.2 X
     Track quality 100.0 %
     Test CRC E9FECB33
     Copy CRC E9FECB33
     Accurately ripped (confidence 7)  [E8F66F5A]  (AR v2)
     Copy OK
Track  6
     Filename F:\Muzika\upload what\Duke Ellington - Original Album Classics (2011) FLAC\Cd2 - ...and His Mother Called HIm Bill\06 After All.wav
     Pre-gap length  0:00:01.73
     Peak level 83.6 %
     Extraction speed 3.4 X
     Track quality 100.0 %
     Test CRC D49B44F9
     Copy CRC D49B44F9
     Accurately ripped (confidence 7)  [CD793AFD]  (AR v2)
     Copy OK
Track  7
     Filename F:\Muzika\upload what\Duke Ellington - Original Album Classics (2011) FLAC\Cd2 - ...and His Mother Called HIm Bill\07 The Intimacy of the Blues.wav
     Pre-gap length  0:00:01.96
     Peak level 96.6 %
     Extraction speed 3.4 X
     Track quality 100.0 %
     Test CRC BC5DC8A6
     Copy CRC BC5DC8A6
     Accurately ripped (confidence 7)  [90DC8631]  (AR v2)
     Copy OK
Track  8
     Filename F:\Muzika\upload what\Duke Ellington - Original Album Classics (2011) FLAC\Cd2 - ...and His Mother Called HIm Bill\08 Raincheck (take 6).wav
     Pre-gap length  0:00:01.04
     Peak level 99.4 %
     Extraction speed 3.8 X
     Track quality 100.0 %
     Test CRC 83679B51
     Copy CRC 83679B51
     Accurately ripped (confidence 7)  [2EA47CB4]  (AR v2)
     Copy OK
Track  9
     Filename F:\Muzika\upload what\Duke Ellington - Original Album Classics (2011) FLAC\Cd2 - ...and His Mother Called HIm Bill\09 Day Dream.wav
     Pre-gap length  0:00:01.64
     Peak level 93.7 %
     Extraction speed 4.0 X
     Track quality 100.0 %
     Test CRC 09FDA3B2
     Copy CRC 09FDA3B2
     Accurately ripped (confidence 7)  [1E7A8AC6]  (AR v2)
     Copy OK
Track 10
     Filename F:\Muzika\upload what\Duke Ellington - Original Album Classics (2011) FLAC\Cd2 - ...and His Mother Called HIm Bill\10 Rock Skippin' at the Blue Note.wav
     Pre-gap length  0:00:01.50
     Peak level 97.8 %
     Extraction speed 3.9 X
     Track quality 100.0 %
     Test CRC 5714DF6C
     Copy CRC 5714DF6C
     Accurately ripped (confidence 7)  [1F75D803]  (AR v2)
     Copy OK
Track 11
     Filename F:\Muzika\upload what\Duke Ellington - Original Album Classics (2011) FLAC\Cd2 - ...and His Mother Called HIm Bill\11 All Day Long.wav
     Pre-gap length  0:00:01.93
     Peak level 99.4 %
     Extraction speed 3.4 X
     Track quality 99.9 %
     Test CRC 6979D5C6
     Copy CRC 6979D5C6
     Accurately ripped (confidence 7)  [EAB61774]  (AR v2)
     Copy OK
Track 12
     Filename F:\Muzika\upload what\Duke Ellington - Original Album Classics (2011) FLAC\Cd2 - ...and His Mother Called HIm Bill\12 Lotus Blossom (solo version).wav
     Pre-gap length  0:00:01.22
     Peak level 90.0 %
     Extraction speed 4.3 X
     Track quality 100.0 %
     Test CRC CFBA4538
     Copy CRC CFBA4538
     Accurately ripped (confidence 7)  [FCC0CC35]  (AR v2)
     Copy OK
Track 13
     Filename F:\Muzika\upload what\Duke Ellington - Original Album Classics (2011) FLAC\Cd2 - ...and His Mother Called HIm Bill\13 Acht O'Clock Rock.wav
     Pre-gap length  0:00:01.96
     Peak level 83.4 %
     Extraction speed 4.1 X
     Track quality 100.0 %
     Test CRC 7534C314
     Copy CRC 7534C314
     Accurately ripped (confidence 7)  [3A64036D]  (AR v2)
     Copy OK
Track 14
     Filename F:\Muzika\upload what\Duke Ellington - Original Album Classics (2011) FLAC\Cd2 - ...and His Mother Called HIm Bill\14 Raincheck (take 4).wav
     Pre-gap length  0:00:04.04
     Peak level 100.0 %
     Extraction speed 4.7 X
     Track quality 100.0 %
     Test CRC 5ADA234A
     Copy CRC 5ADA234A
     Accurately ripped (confidence 7)  [F739B63C]  (AR v2)
     Copy OK
Track 15
     Filename F:\Muzika\upload what\Duke Ellington - Original Album Classics (2011) FLAC\Cd2 - ...and His Mother Called HIm Bill\15 Smada (take 3).wav
     Pre-gap length  0:00:01.40
     Peak level 95.5 %
     Extraction speed 4.6 X
     Track quality 100.0 %
     Test CRC 60A73C81
     Copy CRC 60A73C81
     Accurately ripped (confidence 7)  [300DD8BF]  (AR v2)
     Copy OK
Track 16
     Filename F:\Muzika\upload what\Duke Ellington - Original Album Classics (2011) FLAC\Cd2 - ...and His Mother Called HIm Bill\16 Smada (take 4).wav
     Pre-gap length  0:00:01.26
     Peak level 100.0 %
     Extraction speed 4.6 X
     Track quality 100.0 %
     Test CRC CA7F4110
     Copy CRC CA7F4110
     Accurately ripped (confidence 7)  [29D1FB77]  (AR v2)
     Copy OK
Track 17
     Filename F:\Muzika\upload what\Duke Ellington - Original Album Classics (2011) FLAC\Cd2 - ...and His Mother Called HIm Bill\17 Midriff.wav
     Pre-gap length  0:00:01.90
     Peak level 99.4 %
     Extraction speed 5.0 X
     Track quality 100.0 %
     Test CRC E710AE72
     Copy CRC E710AE72
     Accurately ripped (confidence 7)  [A650C8B9]  (AR v2)
     Copy OK
Track 18
     Filename F:\Muzika\upload what\Duke Ellington - Original Album Classics (2011) FLAC\Cd2 - ...and His Mother Called HIm Bill\18 My Little Brown Book.wav
     Pre-gap length  0:00:01.56
     Peak level 99.4 %
     Extraction speed 5.0 X
     Track quality 100.0 %
     Test CRC CAE97DDC
     Copy CRC CAE97DDC
     Accurately ripped (confidence 7)  [7B3155F9]  (AR v2)
     Copy OK
Track 19
     Filename F:\Muzika\upload what\Duke Ellington - Original Album Classics (2011) FLAC\Cd2 - ...and His Mother Called HIm Bill\19 Lotus Blossom (trio version).wav
     Pre-gap length  0:00:02.16
     Peak level 99.3 %
     Extraction speed 5.3 X
     Track quality 100.0 %
     Test CRC F8EFB3D2
     Copy CRC F8EFB3D2
     Accurately ripped (confidence 7)  [DDE13C9B]  (AR v2)
     Copy OK
All tracks accurately ripped
No errors occurred
End of status report
---- CUETools DB Plugin V2.1.4
[CTDB TOCID: nsZ75Y1fOXqxyglv_TUkSAEEqng-] found
Submit result: nsZ75Y1fOXqxyglv_TUkSAEEqng- has been confirmed
Track | CTDB Status
  1   | (2/2) Accurately ripped
  2   | (2/2) Accurately ripped
  3   | (2/2) Accurately ripped
  4   | (2/2) Accurately ripped
  5   | (2/2) Accurately ripped
  6   | (2/2) Accurately ripped
  7   | (2/2) Accurately ripped
  8   | (2/2) Accurately ripped
  9   | (2/2) Accurately ripped
 10   | (2/2) Accurately ripped
 11   | (2/2) Accurately ripped
 12   | (2/2) Accurately ripped
 13   | (2/2) Accurately ripped
 14   | (2/2) Accurately ripped
 15   | (2/2) Accurately ripped
 16   | (2/2) Accurately ripped
 17   | (2/2) Accurately ripped
 18   | (2/2) Accurately ripped
 19   | (2/2) Accurately ripped
==== Log checksum 24154D64DDF4DE6BE842126F99B8ECFE9678C27DC3AFEDE2DC7F494FB732D483 ====
 
 
Содержание индексной карты (.CUE)
REM GENRE Jazz
REM DATE 1967
REM DISCID 08110013
REM COMMENT "ExactAudioCopy v1.0b3"
PERFORMER "Duke Ellington"
TITLE "And His Mother Called Him Bill"
FILE "01 - Snibor.wav" WAVE
  TRACK 01 AUDIO
    TITLE "Snibor"
    PERFORMER "Duke Ellington"
    ISRC USBB16701019
    INDEX 01 00:00:00
  TRACK 02 AUDIO
    TITLE "Boo-Dah"
    PERFORMER "Duke Ellington"
    ISRC USBB16701020
    INDEX 00 04:13:50
FILE "02 - Boo-Dah.wav" WAVE
    INDEX 01 00:00:00
  TRACK 03 AUDIO
    TITLE "Blood Count"
    PERFORMER "Duke Ellington"
    ISRC USBB16701021
    INDEX 00 03:25:42
FILE "03 - Blood Count.wav" WAVE
    INDEX 01 00:00:00
  TRACK 04 AUDIO
    TITLE "U.M.M.G."
    PERFORMER "Duke Ellington"
    ISRC USBB16701022
    INDEX 00 04:16:65
FILE "04 - U.M.M.G..wav" WAVE
    INDEX 01 00:00:00
FILE "05 - Charpoy.wav" WAVE
  TRACK 05 AUDIO
    TITLE "Charpoy"
    PERFORMER "Duke Ellington"
    ISRC USBB16701023
    INDEX 01 00:00:00
  TRACK 06 AUDIO
    TITLE "After All"
    PERFORMER "Duke Ellington"
    ISRC USBB16701024
    INDEX 00 03:06:20
FILE "06 - After All.wav" WAVE
    INDEX 01 00:00:00
  TRACK 07 AUDIO
    TITLE "The Intimacy of the Blues"
    PERFORMER "Duke Ellington"
    ISRC USBB16701025
    INDEX 00 03:50:63
FILE "07 - The Intimacy of the Blues.wav" WAVE
    INDEX 01 00:00:00
  TRACK 08 AUDIO
    TITLE "Rain Check"
    PERFORMER "Duke Ellington"
    ISRC USBB16701026
    INDEX 00 02:57:55
FILE "08 - Raincheck.wav" WAVE
    INDEX 01 00:00:00
  TRACK 09 AUDIO
    TITLE "Day Dream"
    PERFORMER "Duke Ellington"
    ISRC USBB16701028
    INDEX 00 04:35:62
FILE "09 - Day Dream.wav" WAVE
    INDEX 01 00:00:00
  TRACK 10 AUDIO
    TITLE "Rock Skippin' at the Blue Note"
    PERFORMER "Duke Ellington"
    ISRC USBB16701029
    INDEX 00 04:23:37
FILE "10 - Rock Skippin' at the Blue Note.wav" WAVE
    INDEX 01 00:00:00
  TRACK 11 AUDIO
    TITLE "All Day Long"
    PERFORMER "Duke Ellington"
    ISRC USBB16701030
    INDEX 00 03:00:55
FILE "11 - All Day Long.wav" WAVE
    INDEX 01 00:00:00
  TRACK 12 AUDIO
    TITLE "Lotus Blossom"
    PERFORMER "Duke Ellington"
    ISRC USBB16701031
    INDEX 00 02:56:55
FILE "12 - Lotus Blossom.wav" WAVE
    INDEX 01 00:00:00
  TRACK 13 AUDIO
    TITLE "Acht O'Clock Rock"
    PERFORMER "Duke Ellington"
    ISRC USBB16701037
    INDEX 00 03:54:18
FILE "13 - Acht O'Clock Rock.wav" WAVE
    INDEX 01 00:00:00
  TRACK 14 AUDIO
    TITLE "Rain Check (take 4)"
    PERFORMER "Duke Ellington"
    ISRC USBB16701027
    INDEX 00 02:21:35
FILE "14 - Rain Check (take 4).wav" WAVE
    INDEX 01 00:00:00
  TRACK 15 AUDIO
    TITLE "Smada (take 3)"
    PERFORMER "Duke Ellington"
    ISRC USBB16701033
    INDEX 00 05:21:57
FILE "15 - Smada (take 3).wav" WAVE
    INDEX 01 00:00:00
  TRACK 16 AUDIO
    TITLE "Smada (take 4)"
    PERFORMER "Duke Ellington"
    ISRC USBB16701034
    INDEX 00 03:20:05
FILE "16 - Smada (take 4).wav" WAVE
    INDEX 01 00:00:00
  TRACK 17 AUDIO
    TITLE "Midriff"
    PERFORMER "Duke Ellington"
    ISRC USBB16701035
    INDEX 00 03:18:55
FILE "17 - Midriff.wav" WAVE
    INDEX 01 00:00:00
  TRACK 18 AUDIO
    TITLE "My Little Brown Book"
    PERFORMER "Duke Ellington"
    ISRC USBB16701036
    INDEX 00 04:34:10
FILE "18 - My Little Brown Book.wav" WAVE
    INDEX 01 00:00:00
  TRACK 19 AUDIO
    TITLE "Lotus Blossom (test)"
    PERFORMER "Duke Ellington"
    ISRC USBB16701032
    INDEX 00 04:11:63
FILE "19 - Lotus Blossom (test).wav" WAVE
    INDEX 01 00:00:00
 
 
Отчет CUETools
[CUETools log; Date: 13.12.2013 4:29:29; Version: 2.1.4]
[CTDB TOCID: nsZ75Y1fOXqxyglv_TUkSAEEqng-] found.
Track | CTDB Status
  1   | (3/3) Accurately ripped
  2   | (3/3) Accurately ripped
  3   | (3/3) Accurately ripped
  4   | (3/3) Accurately ripped
  5   | (3/3) Accurately ripped
  6   | (3/3) Accurately ripped
  7   | (3/3) Accurately ripped
  8   | (3/3) Accurately ripped
  9   | (3/3) Accurately ripped
 10   | (3/3) Accurately ripped
 11   | (3/3) Accurately ripped
 12   | (3/3) Accurately ripped
 13   | (3/3) Accurately ripped
 14   | (3/3) Accurately ripped
 15   | (3/3) Accurately ripped
 16   | (3/3) Accurately ripped
 17   | (3/3) Accurately ripped
 18   | (3/3) Accurately ripped
 19   | (3/3) Accurately ripped
[AccurateRip ID: 00309edd-02a82e01-08110013] found.
Track   [  CRC   |   V2   ] Status
 01     [12f1fb52|acc63cff] (00+
По всем вопросам пишите личное сообщение пользователю M0p94ok.
10:29
488
Нет комментариев. Ваш будет первым!