Поиск

1960 Gerry Mulligan And The Concert Jazz Big Band feat. Zoot Sims - Swiss Radio Days Jazz Series: Zurich, Vol.12 (2000) {TCB} [CD]

1960 Gerry Mulligan And The Concert Jazz Big Band feat. Zoot Sims - Swiss Radio Days Jazz Series: Zurich, Vol.12 (2000) {TCB} [CD]
Стили:
Треклист:

01. Utter Chaos - Presentation [01:40]
02. You Took Advantage Of Me [06:08]
03. Black Nightgown [04:30]
04. Motel [08:13]
05. Walkin' Shoes [06:34]
06. Body And Soul [06:03]
07. The Apple Core [05:44]
08. Go Home [09:56]
09. I'm Gonna Go Fishin' [07:29]

Состав:
Доп. инфо:

Год издания: 2000
Издатель (лейбл): TCB
Аудиокодек: FLAC (*.flac)
Тип рипа: image+.cue
Битрейт аудио: lossless
Продолжительность: 00:56:22
Источник (релизер): Karelin
Наличие сканов в содержимом раздачи: нет

Лог создания рипа
Exact Audio Copy V1.0 beta 1 from 15. November 2010
EAC extraction logfile from 20. May 2012, 21:34
Gerry Mulligan and The Concert Jazz Big Band feat. Zoot Sims / Zurich 1960
Used drive  : ATAPI   DVD A  DH20A4P   Adapter: 1  ID: 0
Read mode               : Secure
Utilize accurate stream : Yes
Defeat audio cache      : Yes
Make use of C2 pointers : No
Read offset correction                      : 6
Overread into Lead-In and Lead-Out          : No
Fill up missing offset samples with silence : Yes
Delete leading and trailing silent blocks   : No
Null samples used in CRC calculations       : Yes
Used interface                              : Installed external ASPI interface
Used output format              : User Defined Encoder
Selected bitrate                : 1024 kBit/s
Quality                         : High
Add ID3 tag                     : No
Command line compressor         : C:\Program Files\Exact Audio Copy\Flac\flac.exe
Additional command line options : -5 -V -T "ARTIST=%a" -T "TITLE=%t" -T "ALBUM=%g" -T "DATE=%y" -T "TRACKNUMBER=%n" -T "GENRE=%m" -T "COMMENT=[oStereo.ru]" %s
TOC of the extracted CD
     Track |   Start  |  Length  | Start sector | End sector
    ---------------------------------------------------------
        1  |  0:00.00 |  1:40.61 |         0    |     7560
        2  |  1:40.61 |  6:08.66 |      7561    |    35226
        3  |  7:49.52 |  4:30.07 |     35227    |    55483
        4  | 12:19.59 |  8:13.46 |     55484    |    92504
        5  | 20:33.30 |  6:34.25 |     92505    |   122079
        6  | 27:07.55 |  6:03.58 |    122080    |   149362
        7  | 33:11.38 |  5:44.65 |    149363    |   175227
        8  | 38:56.28 |  9:56.67 |    175228    |   219994
        9  | 48:53.20 |  7:29.22 |    219995    |   253691
Range status and errors
Selected range
     Filename D:\Gerry Mulligan and The Concert Jazz Big Band feat. Zoot Sims - Zurich 1960 - TCB.wav
     Peak level 100.0 %
     Extraction speed 0.4 X
     Range quality 100.0 %
     Test CRC F1DADAA9
     Copy CRC F1DADAA9
     Copy OK
No errors occurred
AccurateRip summary
Track  1  accurately ripped (confidence 1)  [DB14BCDF]
Track  2  accurately ripped (confidence 1)  [54295621]
Track  3  accurately ripped (confidence 1)  [F7307F3A]
Track  4  accurately ripped (confidence 1)  [7144940A]
Track  5  accurately ripped (confidence 1)  [D6DBFB25]
Track  6  accurately ripped (confidence 1)  [7E85301C]
Track  7  accurately ripped (confidence 1)  [0DF7F0C0]
Track  8  accurately ripped (confidence 1)  [911DAA6B]
Track  9  accurately ripped (confidence 1)  [3476719C]
All tracks accurately ripped
End of status report
==== Log checksum CFFF05B5945E814E4CDC806DBD3C10B4A96187F530267D30A684DA34DF9DDEFC ====
Содержание индексной карты (.CUE)
REM GENRE Jazz
REM DISCID 730D3609
REM COMMENT "ExactAudioCopy v1.0b1"
PERFORMER "Gerry Mulligan and The Concert Jazz Big Band feat. Zoot Sims"
TITLE "Zurich 1960"
FILE "Gerry Mulligan and The Concert Jazz Big Band feat. Zoot Sims - Zurich 1960 - TCB.flac" WAVE
  TRACK 01 AUDIO
    TITLE "Utter Chaos - Presentation"
    PERFORMER "Gerry Mulligan and The Concert Jazz Big Band feat. Zoot Sims"
    INDEX 01 00:00:00
  TRACK 02 AUDIO
    TITLE "You Took Advantage Of Me"
    PERFORMER "Gerry Mulligan and The Concert Jazz Big Band feat. Zoot Sims"
    INDEX 01 01:40:61
  TRACK 03 AUDIO
    TITLE "Black Nightgown"
    PERFORMER "Gerry Mulligan and The Concert Jazz Big Band feat. Zoot Sims"
    INDEX 01 07:49:52
  TRACK 04 AUDIO
    TITLE "Motel"
    PERFORMER "Gerry Mulligan and The Concert Jazz Big Band feat. Zoot Sims"
    INDEX 01 12:19:59
  TRACK 05 AUDIO
    TITLE "Walkin' Shoes"
    PERFORMER "Gerry Mulligan and The Concert Jazz Big Band feat. Zoot Sims"
    INDEX 01 20:33:30
  TRACK 06 AUDIO
    TITLE "Body And Soul"
    PERFORMER "Gerry Mulligan and The Concert Jazz Big Band feat. Zoot Sims"
    INDEX 01 27:07:55
  TRACK 07 AUDIO
    TITLE "The Apple Core"
    PERFORMER "Gerry Mulligan and The Concert Jazz Big Band feat. Zoot Sims"
    INDEX 01 33:11:38
  TRACK 08 AUDIO
    TITLE "Go Home"
    PERFORMER "Gerry Mulligan and The Concert Jazz Big Band feat. Zoot Sims"
    INDEX 01 38:56:28
  TRACK 09 AUDIO
    TITLE "I'm gonna Go Fishin'"
    PERFORMER "Gerry Mulligan and The Concert Jazz Big Band feat. Zoot Sims"
    INDEX 01 48:53:20
По всем вопросам пишите личное сообщение пользователю M0p94ok.
01:01
443
Нет комментариев. Ваш будет первым!