Поиск

1962 Gerry Mulligan Quartet - Swiss Radio Days Jazz Series: Zurich, Vol.9 (1998) {TCB 02092} [CD]

1962 Gerry Mulligan Quartet - Swiss Radio Days Jazz Series: Zurich, Vol.9 (1998) {TCB 02092} [CD]
Стили:
Дата записи диска:
18 октября 1962
Место записи:
Kongresshaus Zürich, Switzerland
Дата издания диска:
1998
Номер по каталогу:
TCB 02092

01. Utter Chaos & Presentation [01:59]
02. Open Country [05:37]
03. Love in New Orleans [06:05]
04. Seventeen Mile Drive [04:40]
05. Subterranean Blues [09:19]
06. Spring Is Sprung [08:00]
07. Darn That Dream [07:25]
08. Blueport [10:25]

Состав:
  • Baritone Saxophone – Gerry Mulligan
  • Bass – Bill Crow
  • Co-producer – Fondation Select
  • Drums – Gus Johnson
  • Edited By [Digital] – René Zingg
  • Executive-Producer – Peter Schmidlin, Willy Bischof
  • Liner Notes – James B. Wood II
  • Mastered By – René Zingg
  • Piano – Gerry Mulligan (tracks: 6, 7)
  • Producer – TCB Music SA
  • Recorded By [Engineer] – Jürg Jecklin
  • Valve Trombone – Bob Brookmeyer
Лог создания рипа
Exact Audio Copy V1.0 beta 1 from 15. November 2010
EAC extraction logfile from 15. May 2012, 15:53
Mulligan, Gerry / Gerry Mulligan Quartet, Zurich 1962
Used drive  : ATAPI   DVD A  DH20A4P   Adapter: 1  ID: 0
Read mode               : Secure
Utilize accurate stream : Yes
Defeat audio cache      : Yes
Make use of C2 pointers : No
Read offset correction                      : 6
Overread into Lead-In and Lead-Out          : No
Fill up missing offset samples with silence : Yes
Delete leading and trailing silent blocks   : No
Null samples used in CRC calculations       : Yes
Used interface                              : Installed external ASPI interface
Used output format              : User Defined Encoder
Selected bitrate                : 1024 kBit/s
Quality                         : High
Add ID3 tag                     : No
Command line compressor         : C:\Program Files\Exact Audio Copy\Flac\flac.exe
Additional command line options : -5 -V -T "ARTIST=%a" -T "TITLE=%t" -T "ALBUM=%g" -T "DATE=%y" -T "TRACKNUMBER=%n" -T "GENRE=%m" -T "COMMENT=[oStereo.ru]" %s
TOC of the extracted CD
     Track |   Start  |  Length  | Start sector | End sector
    ---------------------------------------------------------
        1  |  0:00.00 |  1:59.60 |         0    |     8984
        2  |  1:59.60 |  5:37.18 |      8985    |    34277
        3  |  7:37.03 |  6:05.22 |     34278    |    61674
        4  | 13:42.25 |  4:40.15 |     61675    |    82689
        5  | 18:22.40 |  9:19.18 |     82690    |   124632
        6  | 27:41.58 |  8:00.65 |    124633    |   160697
        7  | 35:42.48 |  7:25.49 |    160698    |   194121
        8  | 43:08.22 | 10:25.05 |    194122    |   241001
Range status and errors
Selected range
     Filename D:\Gerry Mulligan Quartet - Zurich 1962 - SWISS RADIO DAYS - TCB.wav
     Peak level 95.7 %
     Extraction speed 0.6 X
     Range quality 100.0 %
     Test CRC A79072B6
     Copy CRC A79072B6
     Copy OK
No errors occurred
AccurateRip summary
Track  1  cannot be verified as accurate (confidence 4)  [2C85C2CD], AccurateRip returned [245E3A1E]
Track  2  cannot be verified as accurate (confidence 4)  [A09C1188], AccurateRip returned [498B34B0]
Track  3  cannot be verified as accurate (confidence 4)  [4641D2E5], AccurateRip returned [CA796F71]
Track  4  cannot be verified as accurate (confidence 4)  [880138B0], AccurateRip returned [C2961058]
Track  5  cannot be verified as accurate (confidence 4)  [10EFE888], AccurateRip returned [3A3633DA]
Track  6  cannot be verified as accurate (confidence 4)  [87C6A601], AccurateRip returned [BF1CCCF3]
Track  7  cannot be verified as accurate (confidence 4)  [EFC43E4B], AccurateRip returned [AA34C211]
Track  8  cannot be verified as accurate (confidence 4)  [CAF6480E], AccurateRip returned [914A759B]
No tracks could be verified as accurate
You may have a different pressing from the one(s) in the database
End of status report
==== Log checksum FFCC0634DAFA491A946ECB021D3D7D8B0D698655722182B94408B40896B86E58 ====
Содержание индексной карты (.CUE)
REM GENRE Jazz
REM DISCID 570C8D08
REM COMMENT "ExactAudioCopy v1.0b1"
PERFORMER "Mulligan, Gerry"
TITLE "Gerry Mulligan Quartet, Zurich 1962"
FILE "Gerry Mulligan Quartet - Zurich 1962 - SWISS RADIO DAYS - TCB.flac" WAVE
  TRACK 01 AUDIO
    TITLE "Utter Chaos & Presentation"
    PERFORMER "Mulligan, Gerry"
    INDEX 01 00:00:00
  TRACK 02 AUDIO
    TITLE "Open Country"
    PERFORMER "Mulligan, Gerry"
    INDEX 01 01:59:60
  TRACK 03 AUDIO
    TITLE "Love in New Orleans"
    PERFORMER "Mulligan, Gerry"
    INDEX 01 07:37:03
  TRACK 04 AUDIO
    TITLE "Seventeen Mile Drive"
    PERFORMER "Mulligan, Gerry"
    INDEX 01 13:42:25
  TRACK 05 AUDIO
    TITLE "Subterranean Blues"
    PERFORMER "Mulligan, Gerry"
    INDEX 01 18:22:40
  TRACK 06 AUDIO
    TITLE "Spring Is Sprung"
    PERFORMER "Mulligan, Gerry"
    INDEX 01 27:41:58
  TRACK 07 AUDIO
    TITLE "Darn That Dream"
    PERFORMER "Mulligan, Gerry"
    INDEX 01 35:42:48
  TRACK 08 AUDIO
    TITLE "Blueport"
    PERFORMER "Mulligan, Gerry"
    INDEX 01 43:08:22
Скачивание доступно после регистрации!!
Приватный:
Нет (DHT включён)
Размер:
327.84 Мб (343,762,081 байт) » файлов: 4
Участники:
13 раздают, 0 качают (13 участников всего)
Внешние участники:
3 раздают, 1 качают (4 участников всего) [ Обновить ]
02:00
857
Нет комментариев. Ваш будет первым!