Поиск

1962 John Coltrane - Standard Coltrane (2019) {Prestige} [DSD64 ISO]

1962 John Coltrane - Standard Coltrane (2019) {Prestige} [DSD64 ISO]
Стили:
Дата записи диска:
11 июля 1958
Место записи:
Van Gelder Recording Studio, Englewood Cliffs, New Jersey, USA
Издатель (лейбл):

This album is available on our DC++ hub: dc.pro-jazz.com
Этот альбом доступен на нашем DC++ хабе: dc.pro-jazz.com

01. Don’t Take Your Love From Me
02. I’ll Get By
03. Spring is Here
04. Invitation

Состав:
Лог проверки качества
foobar2000 1.3.13 / Замер динамического диапазона (DR) 1.1.1
Дата отчёта:  2019-11-07 18:16:22

--------------------------------------------------------------------------------
Анализ:   John Coltrane / Standard Coltrane
--------------------------------------------------------------------------------

DR         Пики         RMS           Продолжительность трека
--------------------------------------------------------------------------------
DR14     -10.94 дБ   -27.92 дБ      9:17 01-Don't Take Your Love From Me
DR15      -8.38 дБ   -26.03 дБ      8:13 02-I'll Get By
DR15      -7.68 дБ   -26.41 дБ      6:58 03-Spring Is Here
DR14      -7.87 дБ   -26.70 дБ     10:25 04-Invitation
--------------------------------------------------------------------------------

Количество треков: 4
Реальные значения DR: DR14

Частота:   2822400 Гц / Частота PCM: 88200 Гц
Каналов:   2
Разрядность:   24
Битрейт:   5645 кбит/с
Кодек:   DSD64
================================================================================
Скачивание доступно после регистрации!!
Приватный:
Нет (DHT включён)
Размер:
1.40 Гб (1,507,631,747 байт) » файлов: 4
Участники:
25 раздают, 1 качают (26 участников всего)
Внешние участники:
8 раздают, 2 качают (10 участников всего) [ Обновить ]
09:56
948
Нет комментариев. Ваш будет первым!