Поиск

1964 Milt Jackson - Jazz 'n' Samba (2019) {RevOla} [24-44,1]

1964 Milt Jackson - Jazz 'n' Samba (2019) {RevOla} [24-44,1]
Издатель (лейбл):

This album is available on our DC++ hub: dc.pro-jazz.com
Этот альбом доступен на нашем DC++ хабе: dc.pro-jazz.com

01 - Statement 05:31
02 - Slowly 03:04
03 - A Thrill From The Blues 05:44
04 - Paris Blues 02:56
05 - Put Off 05:35
06 - A Beautiful Romance 02:29
07 - Sonnymoon For Two 05:59
08 - The Bad And The Beautiful 03:10
09 - Blues For Juanita 05:44
10 - I Got It Bad And That Ain't Good 02:42
11 - Big George 04:48
12 - Gingerbread Boy 03:46
13 - Jazz 'n' Samba 02:13
14 - The Oo-Oo Bossa Nova 03:08
15 - I Love You 04:38
16 - Kiss And Run 03:27
17 - Jazz Bossa Nova 03:01

Состав:
  • Bass – Richard Davis (2)
  • Drums – Connie Kay
  • Engineer – Rudy Van Gelder
  • Guitar – Barry Galbraith (tracks: 5 to 9), Howard Collins (tracks: 5 to 9)
  • Liner Notes – Leonard Feather
  • Piano – Tommy Flanagan (tracks: 1 to 4)
  • Producer – Bob Thiele
  • Tenor Saxophone – Jimmy Heath
  • Vibraphone – Milt Jackson
  • Vocals – Joe E. Ross (tracks: 6), Lillian Clark (tracks: 5, 7)
Лог проверки качества
foobar2000 1.4.3 / Dynamic Range Meter 1.1.1
log date: 2019-12-27 13:14:53

--------------------------------------------------------------------------------
Analyzed: Milt Jackson / Jazz 'n' Samba
--------------------------------------------------------------------------------

DR         Peak         RMS     Duration Track
--------------------------------------------------------------------------------
DR15      -1.76 dB   -19.34 dB      5:31 01-Statement
DR13      -4.12 dB   -21.99 dB      3:05 02-Slowly
DR15      -2.59 dB   -20.38 dB      5:44 03-A Thrill From The Blues
DR15      -3.27 dB   -21.77 dB      2:57 04-Paris Blues
DR14      -1.60 dB   -18.83 dB      5:36 05-Put Off
DR13      -3.21 dB   -22.49 dB      2:29 06-A Beautiful Romance
DR15      -2.25 dB   -19.63 dB      6:00 07-Sonnymoon For Two
DR13      -4.85 dB   -22.65 dB      3:10 08-The Bad And The Beautiful
DR14      -1.06 dB   -19.79 dB      5:44 09-Blues For Juanita
DR12      -4.78 dB   -20.73 dB      2:43 10-I Got It Bad And That Ain't Good
DR13      -1.58 dB   -19.66 dB      4:49 11-Big George
DR12      -4.00 dB   -19.90 dB      3:46 12-Gingerbread Boy
DR13      -2.31 dB   -18.77 dB      2:13 13-Jazz 'n' Samba
DR13      -3.25 dB   -19.93 dB      3:09 14-The Oo-Oo Bossa Nova
DR13      -3.33 dB   -20.41 dB      4:39 15-I Love You
DR12      -3.66 dB   -19.72 dB      3:27 16-Kiss And Run
DR12      -4.95 dB   -20.53 dB      3:01 17-Jazz Bossa Nova
--------------------------------------------------------------------------------

Number of tracks:  17
Official DR value: DR13

Samplerate:        44100 Hz
Channels:          2
Bits per sample:   24
Bitrate:           1471 kbps
Codec:             FLAC
================================================================================
Скачивание доступно после регистрации!!
Приватный:
Нет (DHT включён)
Размер:
700.90 Мб (734,942,153 байт) » файлов: 21
Участники:
4 раздают, 1 качают (5 участников всего)
Внешние участники:
5 раздают, 2 качают (7 участников всего) [ Обновить ]
Скорость:
1.52 Мб/c 0/c
17:43
735
Нет комментариев. Ваш будет первым!