Поиск

1966 Mose Allison - V-8 Ford Blues (2019) {RevOla} [24-44,1]

1966 Mose Allison - V-8 Ford Blues (2019) {RevOla} [24-44,1]
Стили:
Издатель (лейбл):
Битрейт аудио:
lossless

This album is available on our DC++ hub: dc.pro-jazz.com
Этот альбом доступен на нашем DC++ хабе: dc.pro-jazz.com

Треклист:

01 - V-8 Ford Blues 02:16
02 - Please Don't Talk About Me When I'm Gone 01:31
03 - Baby, Please Don't Go 02:37
04 - Hey, Good Lookin' 01:45
05 - I Love the Life I Live 02:28
06 - I Ain't Got Nobody 01:54
07 - Back On The Corner 01:58
08 - Life Is Suicide 02:48
09 - 'Deed I Do 01:58
10 - Ask Me Nice 02:36
11 - You're A Sweatheart 02:15
12 - Mad With You 02:17
13 - High Jinks 04:52
14 - So Rare 03:57
15 - The Hills 03:21

Состав:
  • Bass – Aaron Bell (tracks: 1, 2, 4, 7, 8, 10), Addison Farmer (tracks: 3, 9, 12), Henry Grimes (tracks: 5, 6, 11)
  • Drums – Jerry Segal (tracks: 3, 9, 12), Osie Johnson (tracks: 1, 2, 4, 7, 8, 10), Paul Motian (tracks: 5,6, 11)
  • Vocals, Piano – Mose Allison
Лог проверки качества
foobar2000 1.3.16 / Dynamic Range Meter 1.1.1
log date: 2019-01-19 20:28:22

--------------------------------------------------------------------------------
Analyzed: Mose Allison / V-8 Ford Blues
--------------------------------------------------------------------------------

DR         Peak         RMS     Duration Track
--------------------------------------------------------------------------------
DR14      -3.22 dB   -19.92 dB      2:16 01-V-8 Ford Blues (Remastered)
DR13      -2.97 dB   -18.38 dB      1:32 02-Please Don't Talk About Me When I'm Gone (Remastered)
DR13      -4.68 dB   -21.48 dB      2:38 03-Baby, Please Don't Go (Remastered)
DR14      -1.76 dB   -18.65 dB      1:46 04-Hey, Good Lookin' (Remastered)
DR15      -2.34 dB   -20.28 dB      2:28 05-I Love the Life I Live (Remastered)
DR16      -2.63 dB   -21.49 dB      1:54 06-I Ain't Got Nobody (Remastered)
DR15      -2.27 dB   -19.67 dB      1:58 07-Back On The Corner (Remastered)
DR14      -4.01 dB   -19.82 dB      2:49 08-Life Is Suicide (Remastered)
DR15      -4.75 dB   -23.57 dB      1:59 09-'Deed I Do (Remastered)
DR16      -3.41 dB   -22.09 dB      2:37 10-Ask Me Nice (Remastered)
DR14      -3.12 dB   -20.47 dB      2:16 11-You're A Sweatheart (Remastered)
DR14      -2.69 dB   -19.17 dB      2:17 12-Mad With You (Remastered)
DR15      -0.83 dB   -21.43 dB      4:53 13-High Jinks (Remastered)
DR14      -3.98 dB   -20.85 dB      3:57 14-So Rare (Remastered)
DR14      -2.72 dB   -20.14 dB      3:21 15-The Hills (Remastered)
--------------------------------------------------------------------------------

Number of tracks:  15
Official DR value: DR14

Samplerate:        44100 Hz
Channels:          2
Bits per sample:   24
Bitrate:           1443 kbps
Codec:             FLAC
================================================================================
01:29
754
Нет комментариев. Ваш будет первым!