Поиск

1968 The Don Rendell - Ian Carr Quintet - Live (2018) {Decca, UMO} [24-96]

1968 The Don Rendell - Ian Carr Quintet - Live (2018) {Decca, UMO} [24-96]
Издатель (лейбл):
Носитель:
WEB
Формат:
PCM
Тип рипа:
tracks
Контейнер:
FLAC (*.flac)
Количество каналов:
2.0
Разрядность/ЧД:
24/96
Битрейт аудио:
lossless
Время звучания:
00:48:01
Наличие сканов:
только обложка

01 - On Track 08:13
02 - Vignette 04:54
03 - Pavanne 09:04
04 - Nimjam 03:55
05 - Voices 13:24
06 - You've Said It 08:29

Состав:
  • Don Rendell, tenor saxophone, soprano saxophone, flute, clarinet
  • Ian Carr, trumpet, flugelhorn
  • Michael Garrick, piano
  • Dave Green, bass
  • Trevor Tomkins, drums
  • Engineered by Adrian Kerridge
Лог проверки качества
foobar2000 1.3.7 / Dynamic Range Meter 1.1.1
log date: 2018-12-11 13:02:11
--------------------------------------------------------------------------------
Analyzed: The Don Rendell / Ian Carr Quintet / Live
--------------------------------------------------------------------------------
DR         Peak         RMS     Duration Track
--------------------------------------------------------------------------------
DR9       -0.99 dB   -13.93 dB      8:14 01-On Track
DR12      -1.84 dB   -17.77 dB      4:54 02-Vignette
DR9       -0.33 dB   -13.16 dB      9:04 03-Pavanne
DR9       -0.40 dB   -12.74 dB      3:55 04-Nimjam
DR11      -0.25 dB   -15.31 dB     13:25 05-Voices
DR11      -0.54 dB   -15.41 dB      8:29 06-You've Said It
--------------------------------------------------------------------------------
Number of tracks:  6
Official DR value: DR10
Samplerate:        96000 Hz
Channels:          2
Bits per sample:   24
Bitrate:           2883 kbps
Codec:             FLAC
================================================================================
Скачивание доступно после регистрации!!
Приватный:
Нет (DHT включён)
Размер:
1008.67 Мб (1,057,664,893 байт) » файлов: 11
Участники:
0 раздают, 0 качают (0 участников всего)
Внешние участники:
2 раздают, 1 качают (3 участников всего) [ Обновить ]
13:16
463
Нет комментариев. Ваш будет первым!