Поиск

1970-1973 Donny Hathaway - Collection

1970-1973 Donny Hathaway - Collection
Треклист:

Год выпуска диска: 1973
Производитель диска: USA
Аудио кодек: FLAC
Тип рипа: tracks
Продолжительность: 4 альбома
Трэклист:
Donny Hathaway - Everything Is Everything (1970)
01 - Voices Inside (Everything Is Everything)
02 - Je Vous Aime (I Love You)
03 - I Believe To My Soul
04 - Misty
05 - Sugar Lee
06 - Tryin' times
07 - Thank You Master (For My Soul)
08 - The Ghetto
09 - To Be Young, Gifted And Black
10 - A Dream

 
Отчёт EAC

Donny Hathaway - Donny Hathaway (1971)
01 - Giving Up
02 - A Song For You
03 - Little Girl
04 - He Ain't Heavy, He's My Brother
05 - Magnificent Sanctuary Band
06 - She Is My Lady
07 - I Believe In Music
08 - Take A Love Song
09 - Put Your Hand In The Hand
10 - Be There
11 - This Christmas

 
Отчёт EAC

Donny Hathaway - Live(1972)
01 - What's Goin' On
02 - The Ghetto
03 - Hey Girl
04 - You've Got A Friend
05 - Little Ghetto Boy
06 - We're Still Friends
07 - Jealous Guy
08 - Voices Inside (Everything Is Everything)

 
Отчёт EAC

Donny Hathaway - Extension of a Man (1973)
01 - I Love The Lord, He Heard My Cry (parts I&II)
02 - Someday We'll All Be Free
03 - Flying Easy
04 - Valdez in The Country
05 - I Love You More Than You'll Ever Know
06 - Come Little Children
07 - Love, Love, Love
08 - The Slums
09 - Magdalena
10 - I Know It's You
11 - Lord Help Me

 
Отчёт EAC
EAC extraction logfile from 4. May 2008, 12:53 for CD
Donny Hathaway / Extension of a Man
Used drive : HL-DT-STDVDRAM GSA-4082B Adapter: 1 ID: 1
Read mode : Secure with NO C2, accurate stream, disable cache
Read offset correction : 667
Overread into Lead-In and Lead-Out : No
Used output format : C:\Program Files\FLAC\flac.exe (User Defined Encoder)
128 kBit/s
Additional command line options : -V -8 -T "artist=%a" -T "title=%t" -T "album=%g" -T "date=%y" -T "tracknumber=%n" -T "genre=%m" %s
Other options :
Fill up missing offset samples with silence : Yes
Delete leading and trailing silent blocks : No
Native Win32 interface for Win NT & 2000
Track 1
Filename C:\Documents and Settings\USER\Desktop\New Folder\01 - I Love The Lord, He Heard My Cry (parts I&II).wav
Pre-gap length 0:00:02.00
Peak level 100.0 %
Track quality 100.0 %
Test CRC DFEAC1DC
Copy CRC DFEAC1DC
Copy OK
Track 2
Filename C:\Documents and Settings\USER\Desktop\New Folder\02 - Someday We'll All Be Free.wav
Peak level 100.0 %
Track quality 100.0 %
Test CRC 7DA1D902
Copy CRC 7DA1D902
Copy OK
Track 3
Filename C:\Documents and Settings\USER\Desktop\New Folder\03 - Flying Easy.wav
Pre-gap length 0:00:02.20
Peak level 100.0 %
Track quality 100.0 %
Test CRC AD961109
Copy CRC AD961109
Copy OK
Track 4
Filename C:\Documents and Settings\USER\Desktop\New Folder\04 - Valdez in The Country.wav
Pre-gap length 0:00:01.80
Peak level 100.0 %
Track quality 100.0 %
Test CRC DF457E12
Copy CRC DF457E12
Copy OK
Track 5
Filename C:\Documents and Settings\USER\Desktop\New Folder\05 - I Love You More Than You'll Ever Know.wav
Pre-gap length 0:00:01.42
Peak level 100.0 %
Track quality 100.0 %
Test CRC 3E77D18A
Copy CRC 3E77D18A
Copy OK
Track 6
Filename C:\Documents and Settings\USER\Desktop\New Folder\06 - Come Little Children.wav
Pre-gap length 0:00:01.00
Peak level 100.0 %
Track quality 100.0 %
Test CRC 8C377ABB
Copy CRC 8C377ABB
Copy OK
Track 7
Filename C:\Documents and Settings\USER\Desktop\New Folder\07 - Love, Love, Love.wav
Pre-gap length 0:00:01.80
Peak level 100.0 %
Track quality 100.0 %
Test CRC 0F441ADB
Copy CRC 0F441ADB
Copy OK
Track 8
Filename C:\Documents and Settings\USER\Desktop\New Folder\08 - The Slums.wav
Pre-gap length 0:00:01.69
Peak level 100.0 %
Track quality 99.9 %
Test CRC 91C1DFC5
Copy CRC 91C1DFC5
Copy OK
Track 9
Filename C:\Documents and Settings\USER\Desktop\New Folder\09 - Magdalena.wav
Pre-gap length 0:00:01.77
Peak level 98.6 %
Track quality 99.9 %
Test CRC 62D4ED21
Copy CRC 62D4ED21
Copy OK
Track 10
Filename C:\Documents and Settings\USER\Desktop\New Folder\10 - I Know It's You.wav
Pre-gap length 0:00:00.64
Peak level 100.0 %
Track quality 100.0 %
Test CRC 80AC4111
Copy CRC 80AC4111
Copy OK
Track 11
Filename C:\Documents and Settings\USER\Desktop\New Folder\11 - Lord Help Me.wav
Pre-gap length 0:00:01.86
Peak level 100.0 %
Track quality 100.0 %
Test CRC 77B0E575
Copy CRC 77B0E575
Copy OK
No errors occured
End of status report
19:43
907
Нет комментариев. Ваш будет первым!