Поиск

1972 Don Rendell Quintet - Space Walk (2020) {Decca, UMO} [24-96]

1972 Don Rendell Quintet - Space Walk (2020) {Decca, UMO} [24-96]
Стили:
Дата издания диска:
1 января 1972
Издатель (лейбл):
Носитель:
WEB
Формат:
PCM
Тип рипа:
tracks
Контейнер:
FLAC (*.flac)
Количество каналов:
2.0
Разрядность/ЧД:
24/96
Битрейт аудио:
lossless
Наличие сканов:
только обложка

01 - On The Way 04:27
02 - Antibes 05:42
03 - Summer Song 05:06
04 - Street Called Straight 06:04
05 - Euroaquilo 06:43
06 - A Matter Of Time 04:04
07 - Space Walk 06:31

Состав:
  • David Baker     Recording
  • Denis Preston     Producer
  • Don Rendell     Composer, Flute, Flute (Alto), Sax (Alto), Sax (Sopranino), Tenor (Vocal)
  • Stan Robinson     Clarinet, Composer, Flute, Sax (Tenor)
  • Peter Shade     Composer, Flute, Vibraphone
  • Jack Thorncraft     Bass
  • Trevor Tomkins     Composer, Drums
Лог проверки качества
foobar2000 1.4.6 / Dynamic Range Meter 1.1.1
log date: 2021-09-29 22:54:28
--------------------------------------------------------------------------------
Analyzed: Don Rendell Quintet / Space Walk
--------------------------------------------------------------------------------
DR         Peak         RMS     Duration Track
--------------------------------------------------------------------------------
DR10      -0.23 dB   -12.05 dB      4:27 01-On The Way (Remastered 2020)
DR11      -0.51 dB   -13.59 dB      5:43 02-Antibes (Remastered 2020)
DR10      -1.84 dB   -14.00 dB      5:07 03-Summer Song (Remastered 2020)
DR10      -1.97 dB   -14.87 dB      6:04 04-Street Called Straight (Remastered 2020)
DR11      -0.22 dB   -14.52 dB      6:43 05-Euroaquilo (Remastered 2020)
DR11      -0.20 dB   -13.04 dB      4:04 06-A Matter Of Time (Remastered 2020)
DR10      -0.22 dB   -13.49 dB      6:32 07-Space Walk (Remastered 2020)
--------------------------------------------------------------------------------
Number of tracks:  7
Official DR value: DR10
Samplerate:        96000 Hz
Channels:          2
Bits per sample:   24
Bitrate:           2774 kbps
Codec:             FLAC
================================================================================
Скачивание доступно после регистрации!!
Приватный:
Нет (DHT включён)
Размер:
788.86 Мб (827,181,470 байт) » файлов: 11
Участники:
0 раздают, 0 качают (0 участников всего)
Внешние участники:
5 раздают, 2 качают (7 участников всего) [ Обновить ]
12:58
270
Нет комментариев. Ваш будет первым!