Поиск

1973 Lonnie Liston Smith & The Cosmic Echoes - Astral Traveling (2002) {RCA Victor, Bluebird} [CD]

1973 Lonnie Liston Smith & The Cosmic Echoes - Astral Traveling (2002) {RCA Victor, Bluebird} [CD]
Стили:
Дата записи диска:
24 апреля 1974
Издатель (лейбл):

01 Astral Traveling 5:30
02 Let Us Go Into The House Of The Lord 6:30
03 Rejuvination 5:50
04 I Mani (Faith) 6:10
05 In Search Of Truth 7:04
06 Aspirations 4:20 Previously Unissued Alternate Takes
07 Astral Traveling 5:39
08 Rejuvination 6:36
09 Imani 6:02
10 In Search Of Truth 6:29

Tracks 1-6 original LP issue Flying Dutchman FD 10163

Состав:
  • Bass — Cecil McBee
  • Congas, Percussion — James Mtume, Sonny Morgan
  • Drums — David Lee, Jr.
  • Executive Producer — Joshua Sherman
  • Guitar — Joe Beck
  • Mastered By — Michael O. Drexler
  • Mixed By [Sound Mixer] — Bob Simpson
  • Piano, Electric Piano — Lonnie Liston Smith
  • Producer — Bob Thiele
  • Reissue Producer — Barry Feldman
  • Saxophone [Soprano, Tenor] — George Barron
  • Tabla — Badal Roy
  • Tambura [Tamboura] — Geeta Vashi
Лог создания рипа
X Lossless Decoder version 20161007 (149.3)
XLD extraction logfile from 2017-04-12 21:20:00 +0300
Lonnie Liston Smith / Astral Traveling
Used drive : MATSHITA DVD-R   UJ-867 (revision HA13)
Media type : Pressed CD
Ripper mode             : XLD Secure Ripper
Disable audio cache     : OK for the drive with a cache less than 1375KiB
Make use of C2 pointers : NO
Read offset correction  : 102
Max retry count         : 20
Gap status              : Analyzed, Appended (except HTOA)
TOC of the extracted CD
     Track |   Start  |  Length  | Start sector | End sector
    ---------------------------------------------------------
        1  | 00:00:00 | 05:33:20 |         0    |    24994
        2  | 05:33:20 | 06:21:37 |     24995    |    53606
        3  | 11:54:57 | 05:33:30 |     53607    |    78611
        4  | 17:28:12 | 06:11:65 |     78612    |   106501
        5  | 23:40:02 | 07:18:40 |    106502    |   139391
        6  | 30:58:42 | 04:35:55 |    139392    |   160071
        7  | 35:34:22 | 05:41:23 |    160072    |   185669
        8  | 41:15:45 | 06:38:25 |    185670    |   215544
        9  | 47:53:70 | 06:04:30 |    215545    |   242874
       10  | 53:58:25 | 06:29:22 |    242875    |   272071
List of alternate offset correction values
        #  | Absolute | Relative | Confidence
    ------------------------------------------
        1  |   -737   |   -839   |     15
        2  |   -773   |   -875   |     11
AccurateRip Summary (DiscID: 001692ae-00b4fdb9-780e2b0a)
    Track 01 : OK (v1+v2, confidence 11/35)
    Track 02 : OK (v1+v2, confidence 10/35)
    Track 03 : OK (v1+v2, confidence 10/36)
    Track 04 : OK (v1+v2, confidence 10/36)
    Track 05 : OK (v1+v2, confidence 10/36)
    Track 06 : OK (v1+v2, confidence 11/36)
    Track 07 : OK (v1+v2, confidence 10/36)
    Track 08 : OK (v1+v2, confidence 10/36)
    Track 09 : OK (v1+v2, confidence 9/35)
    Track 10 : OK (v1+v2, confidence 10/33)
        ->All tracks accurately ripped.
All Tracks
    Album gain               : -8.57 dB
    Peak                     : 0.995575
    Statistics
        Read error                           : 0
        Jitter error (maybe fixed)           : 0
        Retry sector count                   : 0
        Damaged sector count                 : 0
Track 01
    Filename : /Users/psyhead/Desktop/Lonnie Liston Smith - Astral Traveling (2002) [FLAC]/01. Astral Traveling.flac
    Pre-gap length : 00:02:00
    Track gain               : -8.87 dB
    Peak                     : 0.995514
    CRC32 hash (test run)    : FEB48412
    CRC32 hash               : FEB48412
    CRC32 hash (skip zero)   : 5C1D9BA5
    AccurateRip v1 signature : 16FA8CE2
    AccurateRip v2 signature : E97A2444
        ->Accurately ripped (v1+v2, confidence 5+6/35)
    Statistics
        Read error                           : 0
        Jitter error (maybe fixed)           : 0
        Retry sector count                   : 0
        Damaged sector count                 : 0
Track 02
    Filename : /Users/psyhead/Desktop/Lonnie Liston Smith - Astral Traveling (2002) [FLAC]/02. Let Us Go Into the House of Lord.flac
    Pre-gap length : 00:03:33
    Track gain               : -8.63 dB
    Peak                     : 0.986786
    CRC32 hash (test run)    : 66DC86E9
    CRC32 hash               : 66DC86E9
    CRC32 hash (skip zero)   : E9EA98AE
    AccurateRip v1 signature : 2A0B84DF
    AccurateRip v2 signature : 402A94E3
        ->Accurately ripped (v1+v2, confidence 4+6/35)
    Statistics
        Read error                           : 0
        Jitter error (maybe fixed)           : 0
        Retry sector count                   : 0
        Damaged sector count                 : 0
Track 03
    Filename : /Users/psyhead/Desktop/Lonnie Liston Smith - Astral Traveling (2002) [FLAC]/03. Rejuvenation.flac
    Pre-gap length : 00:02:47
    Track gain               : -7.94 dB
    Peak                     : 0.950806
    CRC32 hash (test run)    : 37D4AD1A
    CRC32 hash               : 37D4AD1A
    CRC32 hash (skip zero)   : FC71B667
    AccurateRip v1 signature : 2E353EFC
    AccurateRip v2 signature : 65C3F128
        ->Accurately ripped (v1+v2, confidence 4+6/36)
    Statistics
        Read error                           : 0
        Jitter error (maybe fixed)           : 0
        Retry sector count                   : 0
        Damaged sector count                 : 0
Track 04
    Filename : /Users/psyhead/Desktop/Lonnie Liston Smith - Astral Traveling (2002) [FLAC]/04. I Mani (Faith).flac
    Pre-gap length : 00:01:47
    Track gain               : -8.62 dB
    Peak                     : 0.876678
    CRC32 hash (test run)    : 248606AE
    CRC32 hash               : 248606AE
    CRC32 hash (skip zero)   : F979C4C9
    AccurateRip v1 signature : A71BBCF8
    AccurateRip v2 signature : 34C6248A
        ->Accurately ripped (v1+v2, confidence 4+6/36)
    Statistics
        Read error                           : 0
        Jitter error (maybe fixed)           : 0
        Retry sector count                   : 0
        Damaged sector count                 : 0
Track 05
    Filename : /Users/psyhead/Desktop/Lonnie Liston Smith - Astral Traveling (2002) [FLAC]/05. In Search of Truth.flac
    Pre-gap length : 00:02:12
    Track gain               : -7.38 dB
    Peak                     : 0.995483
    CRC32 hash (test run)    : E19535FC
    CRC32 hash               : E19535FC
    CRC32 hash (skip zero)   : 994C6572
    AccurateRip v1 signature : 5F7039E5
    AccurateRip v2 signature : 5511CA0A
        ->Accurately ripped (v1+v2, confidence 4+6/36)
    Statistics
        Read error                           : 0
        Jitter error (maybe fixed)           : 0
        Retry sector count                   : 0
        Damaged sector count                 : 0
Track 06
    Filename : /Users/psyhead/Desktop/Lonnie Liston Smith - Astral Traveling (2002) [FLAC]/06. Aspirations.flac
    Pre-gap length : 00:04:00
    Track gain               : 1.63 dB
    Peak                     : 0.439331
    CRC32 hash (test run)    : EA95FE11
    CRC32 hash               : EA95FE11
    CRC32 hash (skip zero)   : 9E3F0C28
    AccurateRip v1 signature : 0A039A66
    AccurateRip v2 signature : 97FFDDFB
        ->Accurately ripped (v1+v2, confidence 5+6/36)
    Statistics
        Read error                           : 0
        Jitter error (maybe fixed)           : 0
        Retry sector count                   : 0
        Damaged sector count                 : 0
Track 07
    Filename : /Users/psyhead/Desktop/Lonnie Liston Smith - Astral Traveling (2002) [FLAC]/07. Astral Traveling.flac
    Pre-gap length : 00:07:57
    Track gain               : -7.49 dB
    Peak                     : 0.995514
    CRC32 hash (test run)    : 9E608C92
    CRC32 hash               : 9E608C92
    CRC32 hash (skip zero)   : 055DC5F9
    AccurateRip v1 signature : F1912334
    AccurateRip v2 signature : BCC24C14
        ->Accurately ripped (v1+v2, confidence 4+6/36)
    Statistics
        Read error                           : 0
        Jitter error (maybe fixed)           : 0
        Retry sector count                   : 0
        Damaged sector count                 : 0
Track 08
    Filename : /Users/psyhead/Desktop/Lonnie Liston Smith - Astral Traveling (2002) [FLAC]/08. Rejuvination.flac
    Pre-gap length : 00:01:58
    Track gain               : -8.41 dB
    Peak                     : 0.995575
    CRC32 hash (test run)    : 19EAF83E
    CRC32 hash               : 19EAF83E
    CRC32 hash (skip zero)   : C9BB1C88
    AccurateRip v1 signature : 5B3EB0FE
    AccurateRip v2 signature : 915E8459
        ->Accurately ripped (v1+v2, confidence 4+6/36)
    Statistics
        Read error                           : 0
        Jitter error (maybe fixed)           : 0
        Retry sector count                   : 0
        Damaged sector count                 : 0
Track 09
    Filename : /Users/psyhead/Desktop/Lonnie Liston Smith - Astral Traveling (2002) [FLAC]/09. Imani.flac
    Pre-gap length : 00:02:13
    Track gain               : -9.18 dB
    Peak                     : 0.897125
    CRC32 hash (test run)    : 3EBD056C
    CRC32 hash               : 3EBD056C
    CRC32 hash (skip zero)   : 59A1A115
    AccurateRip v1 signature : A4ACC585
    AccurateRip v2 signature : 05E9D6C6
        ->Accurately ripped (v1+v2, confidence 3+6/35)
    Statistics
        Read error                           : 0
        Jitter error (maybe fixed)           : 0
        Retry sector count                   : 0
        Damaged sector count                 : 0
Track 10
    Filename : /Users/psyhead/Desktop/Lonnie Liston Smith - Astral Traveling (2002) [FLAC]/10. In Search of Truth.flac
    Pre-gap length : 00:01:43
    Track gain               : -9.47 dB
    Peak                     : 0.995514
    CRC32 hash (test run)    : D297935D
    CRC32 hash               : D297935D
    CRC32 hash (skip zero)   : 25CBFCA2
    AccurateRip v1 signature : 84BD7E07
    AccurateRip v2 signature : AF65A75D
        ->Accurately ripped (v1+v2, confidence 4+6/33)
    Statistics
        Read error                           : 0
        Jitter error (maybe fixed)           : 0
        Retry sector count                   : 0
        Damaged sector count                 : 0
No errors occurred
End of status report
-----BEGIN XLD SIGNATURE-----
adS339glBu1ZbBFvC70P2qAHN2sK0sMFW3OEs2IeI3o11yecdfSwix.mTvYNdgWsMCInmruaWIUzJCYhCCc_.GDSvqLhPqKJypePhPC
-----END XLD SIGNATURE-----
01:17
667
Нет комментариев. Ваш будет первым!