Поиск

1974 Philip Catherine - September Man (2017) {Warner} [24-96]

1974 Philip Catherine - September Man (2017) {Warner} [24-96]
Стили:
Дата записи диска:
9 августа - 11 августа 1974
Место записи:
Morgan Studios, Brussels, Belgium
Издатель (лейбл):
Треклист:

01. Nairam (4:32)
02. Nineteen Seventy Fourths (9:49)
03. T.P.C. (4:49)
04. September Man (0:34)
05. The Beginning (6:02)
06. The Middle (9:59)
07. The End (2:43)
08. Monday 13 (2:35)

Состав:
  • Philip Catherine — guitar
  • Palle Mikkelborg — trumpet
  • Charlie Mariano — saxophone, flute
  • Jasper Van't Hoff — piano, organ
  • John Lee — bass
  • Gerry Brown — drums
Доп. инфо:

Формат записи/Источник записи: [TR24][OF]
Наличие водяных знаков: Нет
Год издания/переиздания диска: 1974/2017
Издатель (лейбл): WM France
Продолжительность: 41:02
Наличие сканов в содержимом раздачи: Только обложка альбома

Контейнер: FLAC (*.flac)
Тип рипа: tracks
Разрядность: 24/96
Формат: PCM
Количество каналов: 2.0

Источник: hdtracks.de

Лог проверки качества
foobar2000 1.3.9 / Dynamic Range Meter 1.1.1
log date: 2017-12-01 10:54:38
--------------------------------------------------------------------------------
Analyzed: Philip Catherine / September Man
--------------------------------------------------------------------------------
DR         Peak         RMS     Duration Track
--------------------------------------------------------------------------------
DR9       -0.60 dB   -12.57 dB      4:32 01-Nairam
DR8       -0.60 dB   -11.11 dB      9:49 02-Nineteen Seventy Fourths
DR8       -0.60 dB   -10.02 dB      4:49 03-T.P.C.
DR10      -1.44 dB   -17.00 dB      0:34 04-September Man
DR11      -0.60 dB   -15.53 dB      6:02 05-The Beginning
DR8       -0.60 dB    -9.85 dB      9:59 06-The Middle
DR10      -1.26 dB   -17.64 dB      2:43 07-The End
DR9       -0.60 dB   -13.10 dB      2:35 08-Monday 13
--------------------------------------------------------------------------------
Number of tracks:  8
Official DR value: DR9
Samplerate:        96000 Hz
Channels:          2
Bits per sample:   24
Bitrate:           2847 kbps
Codec:             FLAC
================================================================================
Download available for power users only.
03:06
390
Нет комментариев. Ваш будет первым!