Поиск

1978-2005 Pat Metheny Group - Collection [non-remasters] (14 albums)

1978-2005 Pat Metheny Group - Collection [non-remasters] (14 albums)
Стили:
Треклист:

Origins: Europe, USA
Audio: FLAC (image+.cue)
Scans: 600 dpi

 
(1978) Pat Metheny Group (825 593-2)
 
(1979) American Garage (827 134-2)
 
(1982) Offramp (817 138-2)
 
(1983) Travels (810 622-2)
TRAVELS
Originally released: 1983
CD: West Germany, ECM, 810 622-2, ECM 1252/53, (198?)
Total time: 47:17 + 49:12
Disc 1
1. Are You Going With Me? (9:18)
2. The Fields, The Sky (7:46)
3. Goodbye (8:16)
4. Phase Dance (8:03)
5. Straight On Red (7:26)
6. Farmer's Trust (6:25)
Disc 2
1. Extradition (5:44)
2. Goin' Ahead - As Falls Wichita, So Falls Wichita Falls (16:22)
3. Travels (5:03)
4. Song For Bilbao (8:26)
5. San Lorenzo (13:35)
 
Credits
Pat Metheny - Acoustic and Electric Guitars, Guitar synthesizer
Lyle Mays - Piano, synthesizers, Electric Organ, Autoharp, Synclavier
Steve Rodby - Acoustic and Electric Bass, Bass synthesizer
Dan Gottlieb - Drums
Nana Vasconcelos - Percussion, Voice, Berimbau
Produced by Pat Metheny and Manfred Eicher
 
Logs
 
CD 1
Exact Audio Copy V1.1 from 23. June 2015
EAC extraction logfile from 12. January 2016, 20:24
Pat Metheny Group / Travels (810 622-2) CD 1
Used drive  : HL-DT-STDVDRAM GE20NU11   Adapter: 1  ID: 0
Read mode               : Secure
Utilize accurate stream : Yes
Defeat audio cache      : Yes
Make use of C2 pointers : No
Read offset correction                      : 667
Overread into Lead-In and Lead-Out          : No
Fill up missing offset samples with silence : Yes
Delete leading and trailing silent blocks   : No
Null samples used in CRC calculations       : Yes
Used interface                              : Native Win32 interface for Win NT & 2000
Used output format              : User Defined Encoder
Selected bitrate                : 896 kBit/s
Quality                         : High
Add ID3 tag                     : No
Command line compressor         : C:\Program Files\EAC 3\Exact Audio Copy\Flac\flac.exe
Additional command line options : -V -8 %source%
TOC of the extracted CD
     Track |   Start  |  Length  | Start sector | End sector
    ---------------------------------------------------------
        1  |  0:00.33 |  9:18.12 |        33    |    41894
        2  |  9:18.45 |  7:46.63 |     41895    |    76907
        3  | 17:05.33 |  8:16.32 |     76908    |   114139
        4  | 25:21.65 |  8:03.18 |    114140    |   150382
        5  | 33:25.08 |  7:26.62 |    150383    |   183894
        6  | 40:51.70 |  6:25.18 |    183895    |   212787
Range status and errors
Selected range
     Filename C:\OdW\Pat Metheny Group\1983 - Travels (810 622-2)\CD 1\Pat Metheny Group - Travels (810 622-2) CD 1.wav
     Peak level 87.7 %
     Extraction speed 1.9 X
     Range quality 100.0 %
     Test CRC 05CF7EB5
     Copy CRC 05CF7EB5
     Copy OK
No errors occurred
AccurateRip summary
Track  1  accurately ripped (confidence 66)  [2517F5F3]  (AR v2)
Track  2  accurately ripped (confidence 66)  [B0D6D4DD]  (AR v2)
Track  3  accurately ripped (confidence 66)  [1B120565]  (AR v2)
Track  4  accurately ripped (confidence 67)  [B927650A]  (AR v2)
Track  5  accurately ripped (confidence 64)  [E9E84C9E]  (AR v2)
Track  6  accurately ripped (confidence 63)  [F2A23D85]  (AR v2)
All tracks accurately ripped
End of status report
---- CUETools DB Plugin V2.1.6
[CTDB TOCID: kiOI_kiu3Us.TTRothZKiQH_GQo-] found
Submit result: kiOI_kiu3Us.TTRothZKiQH_GQo- has been confirmed
Track | CTDB Status
  1   | (64/75) Accurately ripped, or (4/75) differs in 118 samples @01:23:10-01:23:13,01:26:63-01:26:68, or (4/75) differs in 118 samples @01:23:10-01:23:13,01:26:63-01:26:68
  2   | (73/75) Accurately ripped
  3   | (73/75) Accurately ripped
  4   | (73/75) Accurately ripped
  5   | (74/75) Accurately ripped
  6   | (72/75) Accurately ripped
==== Log checksum 8BD24DA457261E7534EAE3C1C9DE596E9E41C226A72C062E07A7661AB8D539CF ====
 
CD 2
Exact Audio Copy V1.1 from 23. June 2015
EAC extraction logfile from 12. January 2016, 20:46
Pat Metheny Group / Travels (810 622-2) CD 2
Used drive  : HL-DT-STDVDRAM GE20NU11   Adapter: 1  ID: 0
Read mode               : Secure
Utilize accurate stream : Yes
Defeat audio cache      : Yes
Make use of C2 pointers : No
Read offset correction                      : 667
Overread into Lead-In and Lead-Out          : No
Fill up missing offset samples with silence : Yes
Delete leading and trailing silent blocks   : No
Null samples used in CRC calculations       : Yes
Used interface                              : Native Win32 interface for Win NT & 2000
Used output format              : User Defined Encoder
Selected bitrate                : 896 kBit/s
Quality                         : High
Add ID3 tag                     : No
Command line compressor         : C:\Program Files\EAC 3\Exact Audio Copy\Flac\flac.exe
Additional command line options : -V -8 %source%
TOC of the extracted CD
     Track |   Start  |  Length  | Start sector | End sector
    ---------------------------------------------------------
        1  |  0:00.33 |  5:44.42 |        33    |    25874
        2  |  5:45.00 | 16:22.05 |     25875    |    99529
        3  | 22:07.05 |  5:03.18 |     99530    |   122272
        4  | 27:10.23 |  8:26.32 |    122273    |   160254
        5  | 35:36.55 | 13:35.50 |    160255    |   221429
Range status and errors
Selected range
     Filename C:\OdW\Pat Metheny Group\1983 - Travels (810 622-2)\CD 2\Pat Metheny Group - Travels (810 622-2) CD 2.wav
     Peak level 89.8 %
     Extraction speed 7.0 X
     Range quality 100.0 %
     Test CRC 3D84C5B2
     Copy CRC 3D84C5B2
     Copy OK
No errors occurred
AccurateRip summary
Track  1  accurately ripped (confidence 70)  [E5FA2147]  (AR v2)
Track  2  accurately ripped (confidence 70)  [0D7C1100]  (AR v2)
Track  3  accurately ripped (confidence 72)  [83C50E71]  (AR v2)
Track  4  accurately ripped (confidence 71)  [FF37170E]  (AR v2)
Track  5  accurately ripped (confidence 66)  [9F2DE784]  (AR v2)
All tracks accurately ripped
End of status report
---- CUETools DB Plugin V2.1.6
[CTDB TOCID: m9CDBTDTPJYK1_OG9fn.QcMN7MQ-] found
Submit result: m9CDBTDTPJYK1_OG9fn.QcMN7MQ- has been confirmed
Track | CTDB Status
  1   | (39/39) Accurately ripped
  2   | (38/39) Accurately ripped
  3   | (38/39) Accurately ripped
  4   | (38/39) Accurately ripped
  5   | (39/39) Accurately ripped
==== Log checksum 0996C05281F1D6A0083EDE7F13EF23F6839EEE7CA9222FEF5724373F13BC894D ====
 
.cue
 
CD 1
REM GENRE "Jazz Fusion"
REM DATE 1983
REM DISCID 390B1506
REM COMMENT "ExactAudioCopy v1.1"
PERFORMER "Pat Metheny Group"
TITLE "Travels (810 622-2) CD 1"
FILE "Pat Metheny Group - Travels (810 622-2) CD 1.flac" WAVE
  TRACK 01 AUDIO
    TITLE "Are You Going With Me?"
    PERFORMER "Pat Metheny Group"
    INDEX 00 00:00:00
    INDEX 01 00:00:33
  TRACK 02 AUDIO
    TITLE "The Fields, The Sky"
    PERFORMER "Pat Metheny Group"
    INDEX 01 09:18:45
  TRACK 03 AUDIO
    TITLE "Goodbye"
    PERFORMER "Pat Metheny Group"
    INDEX 01 17:05:33
  TRACK 04 AUDIO
    TITLE "Phase Dance"
    PERFORMER "Pat Metheny Group"
    INDEX 01 25:21:65
  TRACK 05 AUDIO
    TITLE "Straight On Red"
    PERFORMER "Pat Metheny Group"
    INDEX 01 33:25:08
  TRACK 06 AUDIO
    TITLE "Farmer's Trust"
    PERFORMER "Pat Metheny Group"
    INDEX 00 40:51:03
    INDEX 01 40:51:70
 
CD 2
REM GENRE "Jazz Fusion"
REM DATE 1983
REM DISCID 390B8805
REM COMMENT "ExactAudioCopy v1.1"
PERFORMER "Pat Metheny Group"
TITLE "Travels (810 622-2) CD 2"
FILE "Pat Metheny Group - Travels (810 622-2) CD 2.flac" WAVE
  TRACK 01 AUDIO
    TITLE "Extradition"
    PERFORMER "Pat Metheny Group"
    INDEX 00 00:00:00
    INDEX 01 00:00:33
  TRACK 02 AUDIO
    TITLE "Goin' Ahead - As Falls Wichita, So Falls Wichita Falls"
    PERFORMER "Pat Metheny Group"
    INDEX 00 05:43:00
    INDEX 01 05:45:00
  TRACK 03 AUDIO
    TITLE "Travels"
    PERFORMER "Pat Metheny Group"
    INDEX 00 22:05:05
    INDEX 01 22:07:05
  TRACK 04 AUDIO
    TITLE "Song For Bilbao"
    PERFORMER "Pat Metheny Group"
    INDEX 01 27:10:23
  TRACK 05 AUDIO
    TITLE "San Lorenzo"
    PERFORMER "Pat Metheny Group"
    INDEX 01 35:36:55
 
(1984) First Circle (823 342-2)
FIRST CIRCLE
Originally released: 1984
CD: West Germany, ECM, 823 342-2, (198?)
Total time: 49:58
[font= Arial][1] Forward March (2:49)
[2] Yolanda, You Learn (4:49)
[3] The First Circle (9:16)
[4] If I Could (7:01)
[5] Tell It All (7:59)
[6] End Of The Game (8:02)
[7] Más Allá (Beyond) (5:40)
[8] Praise (4:18)
 
Credits
Pat Metheny - Guitar, Synclavier Guitar, Sitar, Slide Guitar, Acoustic Guitar, Acoustic 12-String Guitar
Lyle Mays - Piano, Synthesizers, Oberheim, Agogo Bells, Organ, Trumpet
Steve Rodby - Bass Guitar, Acoustic Bass, Bass Drum
Pedro Aznar - Glockenspiel, Voice, Bells, Acoustic Guitar, Percussion, Whistle, Guitar Acoustic 12-String Guitar
Paul Wertico - Drums, Field Drum, Cymbal
Produced by Pat Metheny
 
Log
Exact Audio Copy V1.1 from 23. June 2015
EAC extraction logfile from 12. January 2016, 23:11
Pat Metheny Group / First Circle (823 342-2)
Used drive  : HL-DT-STDVDRAM GE20NU11   Adapter: 1  ID: 0
Read mode               : Secure
Utilize accurate stream : Yes
Defeat audio cache      : Yes
Make use of C2 pointers : No
Read offset correction                      : 667
Overread into Lead-In and Lead-Out          : No
Fill up missing offset samples with silence : Yes
Delete leading and trailing silent blocks   : No
Null samples used in CRC calculations       : Yes
Used interface                              : Native Win32 interface for Win NT & 2000
Used output format              : User Defined Encoder
Selected bitrate                : 896 kBit/s
Quality                         : High
Add ID3 tag                     : No
Command line compressor         : C:\Program Files\EAC 3\Exact Audio Copy\Flac\flac.exe
Additional command line options : -V -8 %source%
TOC of the extracted CD
     Track |   Start  |  Length  | Start sector | End sector
    ---------------------------------------------------------
        1  |  0:00.33 |  2:49.52 |        33    |    12759
        2  |  2:50.10 |  4:49.20 |     12760    |    34454
        3  |  7:39.30 |  9:16.15 |     34455    |    76169
        4  | 16:55.45 |  7:01.03 |     76170    |   107747
        5  | 23:56.48 |  7:59.60 |    107748    |   143732
        6  | 31:56.33 |  8:02.57 |    143733    |   179939
        7  | 39:59.15 |  5:40.58 |    179940    |   205497
        8  | 45:39.73 |  4:18.15 |    205498    |   224862
Range status and errors
Selected range
     Filename C:\OdW\Pat Metheny Group\1984 - First Circle (823 342-2)\Pat Metheny Group - First Circle (823 342-2).wav
     Peak level 76.8 %
     Extraction speed 7.1 X
     Range quality 100.0 %
     Test CRC 491EE08B
     Copy CRC 491EE08B
     Copy OK
No errors occurred
AccurateRip summary
Track  1  accurately ripped (confidence 82)  [58858AA0]  (AR v2)
Track  2  accurately ripped (confidence 84)  [61856EAD]  (AR v2)
Track  3  accurately ripped (confidence 84)  [D066AC3A]  (AR v2)
Track  4  accurately ripped (confidence 85)  [7CECC5A9]  (AR v2)
Track  5  accurately ripped (confidence 83)  [31B3C609]  (AR v2)
Track  6  accurately ripped (confidence 82)  [616843F2]  (AR v2)
Track  7  accurately ripped (confidence 85)  [02D99C88]  (AR v2)
Track  8  accurately ripped (confidence 85)  [272C1B54]  (AR v2)
All tracks accurately ripped
End of status report
---- CUETools DB Plugin V2.1.6
[CTDB TOCID: v._PijIgPBDAyKM9OkXSBYiQssA-] found
Submit result: v._PijIgPBDAyKM9OkXSBYiQssA- has been confirmed
Track | CTDB Status
  1   | (95/97) Accurately ripped
  2   | (95/97) Accurately ripped
  3   | (92/97) Accurately ripped
  4   | (94/97) Accurately ripped
  5   | (95/97) Accurately ripped
  6   | (94/97) Accurately ripped, or (1/97) differs in 208 samples @00:21:41,00:23:11-00:23:12,00:23:42,00:23:72,00:24:12,00:24:27,00:24:42,00:24:72-00:24:73,00:25:28,00:26:59,00:32:47
  7   | (90/97) Accurately ripped
  8   | (94/97) Accurately ripped
==== Log checksum F489B8E64FF7CA46E43B0F1E3C337FEEFC8D06D55B490596BA9EC8AA64E2DC7F ====
 
.cue
REM GENRE "Jazz Fusion"
REM DATE 1984
REM DISCID 580BB608
REM COMMENT "ExactAudioCopy v1.1"
PERFORMER "Pat Metheny Group"
TITLE "First Circle (823 342-2)"
FILE "Pat Metheny Group - First Circle (823 342-2).flac" WAVE
  TRACK 01 AUDIO
    TITLE "Forward March"
    PERFORMER "Pat Metheny Group"
    INDEX 00 00:00:00
    INDEX 01 00:00:33
  TRACK 02 AUDIO
    TITLE "Yolanda, You Learn"
    PERFORMER "Pat Metheny Group"
    INDEX 00 02:49:65
    INDEX 01 02:50:10
  TRACK 03 AUDIO
    TITLE "The First Circle"
    PERFORMER "Pat Metheny Group"
    INDEX 00 07:36:10
    INDEX 01 07:39:30
  TRACK 04 AUDIO
    TITLE "If I Could"
    PERFORMER "Pat Metheny Group"
    INDEX 00 16:51:28
    INDEX 01 16:55:45
  TRACK 05 AUDIO
    TITLE "Tell It All"
    PERFORMER "Pat Metheny Group"
    INDEX 00 23:50:63
    INDEX 01 23:56:48
  TRACK 06 AUDIO
    TITLE "End Of The Game"
    PERFORMER "Pat Metheny Group"
    INDEX 00 31:53:55
    INDEX 01 31:56:33
  TRACK 07 AUDIO
    TITLE "Mas Alla (Beyond)"
    PERFORMER "Pat Metheny Group"
    INDEX 00 39:55:13
    INDEX 01 39:59:15
  TRACK 08 AUDIO
    TITLE "Praise"
    PERFORMER "Pat Metheny Group"
    INDEX 00 45:39:13
    INDEX 01 45:39:73
 
(1985) The Falcon And The Snowman (CDP 7 48411 2)
THE FALCON AND THE SNOWMAN
Originally released: 1985
CD: USA, Capitol/EMI-Manhattan, CDP 7 48411 2, (1985?)
Total time: 38:55
1. Psalm 121 - Flight Of The Falcon (4:09)
2. Daulton Lee (5:59)
3. Chris (3:21)
4. 'The Falcon' (5:02)
5. This Is Not America (3:55)
6. Extent Of The Lie (4:18)
7. The Level Of Deception (5:49)
8. Capture (4:03)
9. Epilogue (Psalm 121) (2:16)
 
Credits
Pat Metheny - guitar synthesizer, acoustic & electric guitars
Lyle Mays - synthesizers, piano
Steve Rodby - acoustic bass & electric basses
Paul Wertico - drums, percussion
Pedro Aznar - voice on "Daulton Lee" and "The Falcon"
National Philharmonic Orchestra (conducted by Steve Rodby) on "Flight of the Falcon", "Extent of the Lie", "The Level of Deception" and "Capture"
Ambrosian Choir (conducted by John McCarthy) on "Psalm 121" and "Epilogue (Psalm 121)"
David Bowie - vocals and lyricist on "This Is Not America"
Produced by Pat Metheny
 
Log
Exact Audio Copy V1.1 from 23. June 2015
EAC extraction logfile from 20. January 2016, 21:37
Pat Metheny Group / The Falcon And The Snowman (CDP 7 48411 2)
Used drive  : HL-DT-STDVDRAM GE20NU11   Adapter: 1  ID: 0
Read mode               : Secure
Utilize accurate stream : Yes
Defeat audio cache      : Yes
Make use of C2 pointers : No
Read offset correction                      : 667
Overread into Lead-In and Lead-Out          : No
Fill up missing offset samples with silence : Yes
Delete leading and trailing silent blocks   : No
Null samples used in CRC calculations       : Yes
Used interface                              : Native Win32 interface for Win NT & 2000
Used output format              : User Defined Encoder
Selected bitrate                : 896 kBit/s
Quality                         : High
Add ID3 tag                     : No
Command line compressor         : C:\Program Files\EAC 3\Exact Audio Copy\Flac\flac.exe
Additional command line options : -V -8 %source%
TOC of the extracted CD
     Track |   Start  |  Length  | Start sector | End sector
    ---------------------------------------------------------
        1  |  0:00.00 |  4:09.27 |         0    |    18701
        2  |  4:09.27 |  5:59.15 |     18702    |    45641
        3  | 10:08.42 |  3:21.10 |     45642    |    60726
        4  | 13:29.52 |  5:02.25 |     60727    |    83401
        5  | 18:32.02 |  3:55.73 |     83402    |   101099
        6  | 22:28.00 |  4:18.02 |    101100    |   120451
        7  | 26:46.02 |  5:49.05 |    120452    |   146631
        8  | 32:35.07 |  4:03.20 |    146632    |   164876
        9  | 36:38.27 |  2:16.70 |    164877    |   175146
Range status and errors
Selected range
     Filename C:\OdW\Pat Metheny Group\1985 - The Falcon And The Snowman (CDP 7 48411 2)\Pat Metheny Group - The Falcon And The Snowman (CDP 7 48411 2).wav
     Peak level 100.0 %
     Extraction speed 6.5 X
     Range quality 99.9 %
     Test CRC 5F970589
     Copy CRC 5F970589
     Copy OK
No errors occurred
AccurateRip summary
Track  1  accurately ripped (confidence 35)  [729A69AC]  (AR v2)
Track  2  accurately ripped (confidence 35)  [4D816C58]  (AR v2)
Track  3  accurately ripped (confidence 35)  [1763EF89]  (AR v2)
Track  4  accurately ripped (confidence 35)  [DC5DFE28]  (AR v2)
Track  5  accurately ripped (confidence 36)  [918ACD43]  (AR v2)
Track  6  accurately ripped (confidence 33)  [BEF1FA13]  (AR v2)
Track  7  accurately ripped (confidence 33)  [AE9C3FC6]  (AR v2)
Track  8  accurately ripped (confidence 35)  [A6C18036]  (AR v2)
Track  9  accurately ripped (confidence 33)  [8D1E39AA]  (AR v2)
All tracks accurately ripped
End of status report
---- CUETools DB Plugin V2.1.6
[CTDB TOCID: bQzSXxbY4K3109rX8GMhv8izyMA-] found
Submit result: bQzSXxbY4K3109rX8GMhv8izyMA- has been confirmed
Track | CTDB Status
  1   | (58/58) Accurately ripped
  2   | (58/58) Accurately ripped
  3   | (58/58) Accurately ripped
  4   | (58/58) Accurately ripped
  5   | (58/58) Accurately ripped
  6   | (58/58) Accurately ripped
  7   | (58/58) Accurately ripped
  8   | (58/58) Accurately ripped
  9   | (58/58) Accurately ripped
==== Log checksum 41A05B40BCE45045515A5E2C66F8C36171909D62287EF13729C06115C5C2977F ====
 
.cue
REM GENRE "Jazz Fusion"
REM DATE 1985
REM DISCID 54091F09
REM COMMENT "ExactAudioCopy v1.1"
PERFORMER "Pat Metheny Group"
TITLE "The Falcon And The Snowman (CDP 7 48411 2)"
FILE "Pat Metheny Group - The Falcon And The Snowman (CDP 7 48411 2).flac" WAVE
  TRACK 01 AUDIO
    TITLE "Psalm 121 - Flight Of The Falcon"
    PERFORMER "Pat Metheny Group"
    INDEX 01 00:00:00
  TRACK 02 AUDIO
    TITLE "Daulton Lee"
    PERFORMER "Pat Metheny Group"
    INDEX 01 04:09:27
  TRACK 03 AUDIO
    TITLE "Chris"
    PERFORMER "Pat Metheny Group"
    INDEX 00 10:05:47
    INDEX 01 10:08:42
  TRACK 04 AUDIO
    TITLE "'The Falcon'"
    PERFORMER "Pat Metheny Group"
    INDEX 00 13:25:55
    INDEX 01 13:29:52
  TRACK 05 AUDIO
    TITLE "This Is Not America"
    PERFORMER "David Bowie / Pat Metheny Group "
    INDEX 00 18:30:22
    INDEX 01 18:32:02
  TRACK 06 AUDIO
    TITLE "Extent Of The Lie"
    PERFORMER "Pat Metheny Group"
    INDEX 00 22:25:27
    INDEX 01 22:28:00
  TRACK 07 AUDIO
    TITLE "The Level Of Deception"
    PERFORMER "Pat Metheny Group"
    INDEX 00 26:45:62
    INDEX 01 26:46:02
  TRACK 08 AUDIO
    TITLE "Capture"
    PERFORMER "Pat Metheny Group"
    INDEX 00 32:31:55
    INDEX 01 32:35:07
  TRACK 09 AUDIO
    TITLE "Epilogue (Psalm 121)"
    PERFORMER "Pat Metheny Group"
    INDEX 00 36:35:35
    INDEX 01 36:38:27
 
(1987) Still Life (Talking) (GED 24145)
STILL life (talking)
Originally released: July 7, 1987
CD: West Germany, Geffen, GED 24145, GEFD 24145, (1987?)
Total time: 42:33
1. Minuano (Six Eight) (9:27)
2. So May It Secretly Begin (6:26)
3. Last Train Home (5:41)
4. (It's Just) Talk (6:17)
5. Third Wind (8:37)
6. Distance (2:45)
7. In Her Family (3:17)
 
Credits
Pat Metheny - guitar, synth guitar, acoustic guitars, electric guitars
Lyle Mays - piano, keyboards
Steve Rodby - acoustic bass, electric bass
Paul Wertico - drums
Armando Marçal - percussion, background vocals
Mark Ledford, David Blamires - vocals
Produced by Pat Metheny
 
Log
Exact Audio Copy V1.1 from 23. June 2015
EAC extraction logfile from 12. January 2016, 23:42
Pat Metheny Group / Still Life (Talking) (GED 24145)
Used drive  : HL-DT-STDVDRAM GE20NU11   Adapter: 1  ID: 0
Read mode               : Secure
Utilize accurate stream : Yes
Defeat audio cache      : Yes
Make use of C2 pointers : No
Read offset correction                      : 667
Overread into Lead-In and Lead-Out          : No
Fill up missing offset samples with silence : Yes
Delete leading and trailing silent blocks   : No
Null samples used in CRC calculations       : Yes
Used interface                              : Native Win32 interface for Win NT & 2000
Used output format              : User Defined Encoder
Selected bitrate                : 896 kBit/s
Quality                         : High
Add ID3 tag                     : No
Command line compressor         : C:\Program Files\EAC 3\Exact Audio Copy\Flac\flac.exe
Additional command line options : -V -8 %source%
TOC of the extracted CD
     Track |   Start  |  Length  | Start sector | End sector
    ---------------------------------------------------------
        1  |  0:00.33 |  9:27.62 |        33    |    42619
        2  |  9:28.20 |  6:26.00 |     42620    |    71569
        3  | 15:54.20 |  5:41.28 |     71570    |    97172
        4  | 21:35.48 |  6:17.37 |     97173    |   125484
        5  | 27:53.10 |  8:37.33 |    125485    |   164292
        6  | 36:30.43 |  2:45.50 |    164293    |   176717
        7  | 39:16.18 |  3:17.15 |    176718    |   191507
Range status and errors
Selected range
     Filename C:\OdW\Pat Metheny Group\1987 - Still Life (Talking) (GED 24145)\Pat Metheny Group - Still Life (Talking) (GED 24145).wav
     Peak level 99.9 %
     Extraction speed 6.7 X
     Range quality 99.9 %
     Test CRC A7CEFF1F
     Copy CRC A7CEFF1F
     Copy OK
No errors occurred
AccurateRip summary
Track  1  accurately ripped (confidence 46)  [B5216DD6]  (AR v2)
Track  2  accurately ripped (confidence 48)  [BA0A91BD]  (AR v2)
Track  3  accurately ripped (confidence 46)  [89155A22]  (AR v2)
Track  4  accurately ripped (confidence 46)  [3C887D96]  (AR v2)
Track  5  accurately ripped (confidence 45)  [2F247F09]  (AR v2)
Track  6  accurately ripped (confidence 47)  [6EAF6100]  (AR v2)
Track  7  accurately ripped (confidence 46)  [80891BF2]  (AR v2)
All tracks accurately ripped
End of status report
---- CUETools DB Plugin V2.1.6
[CTDB TOCID: zVjMqSWgaVX7bTVpnDaHge8funU-] found
Submit result: zVjMqSWgaVX7bTVpnDaHge8funU- has been confirmed
Track | CTDB Status
  1   | (77/77) Accurately ripped
  2   | (76/77) Accurately ripped
  3   | (72/77) Accurately ripped, or (4/77) differs in 1 samples @03:25:40
  4   | (76/77) Accurately ripped
  5   | (77/77) Accurately ripped
  6   | (77/77) Accurately ripped
  7   | (75/77) Accurately ripped, or (1/77) differs in 35 samples @00:00:32
==== Log checksum DAEE7048DBB3964EECEAAFCCD27137FAF0A1ABE4A26AD78A2F48AC6A6942D6FA ====
 
.cue
REM GENRE "Jazz Fusion"
REM DATE 1987
REM DISCID 6809F907
REM COMMENT "ExactAudioCopy v1.1"
PERFORMER "Pat Metheny Group"
TITLE "Still Life (Talking) (GED 24145)"
FILE "Pat Metheny Group - Still Life (Talking) (GED 24145).flac" WAVE
  TRACK 01 AUDIO
    TITLE "Minuano (Six Eight)"
    PERFORMER "Pat Metheny Group"
    INDEX 00 00:00:00
    INDEX 01 00:00:33
  TRACK 02 AUDIO
    TITLE "So May It Secretly Begin"
    PERFORMER "Pat Metheny Group"
    INDEX 00 09:26:48
    INDEX 01 09:28:20
  TRACK 03 AUDIO
    TITLE "Last Train Home"
    PERFORMER "Pat Metheny Group"
    INDEX 00 15:53:15
    INDEX 01 15:54:20
  TRACK 04 AUDIO
    TITLE "(It's Just) Talk"
    PERFORMER "Pat Metheny Group"
    INDEX 00 21:32:73
    INDEX 01 21:35:48
  TRACK 05 AUDIO
    TITLE "Third Wind"
    PERFORMER "Pat Metheny Group"
    INDEX 00 27:52:05
    INDEX 01 27:53:10
  TRACK 06 AUDIO
    TITLE "Distance"
    PERFORMER "Pat Metheny Group"
    INDEX 00 36:26:48
    INDEX 01 36:30:43
  TRACK 07 AUDIO
    TITLE "In Her Family"
    PERFORMER "Pat Metheny Group"
    INDEX 01 39:16:18
 
(1989) Letter From Home (GED 24245)
LETTER FROM HOME
Originally released: 1989
CD: West Germany, Geffen, GED 24245, GEFD 24245, (1989)
Total time: 61:51
01. Have You Heard (6:25)
02. Every Summer Night (7:13)
03. Better Days Ahead (3:03)
04. Spring Ain't Here (6:55)
05. 45/8 (0:57)
06. 5-5-7 (7:54)
07. Beat 70 (4:55)
08. Dream Of The Return (5:26)
09. Are We There Yet (7:55)
10. Vidala (3:03)
11. Slip Away (5:25)
12. Letter From Home (2:34)
 
Credits
Pat Metheny - Acoustic and Electric Guitars, 12 String Guitar, Soprano Guitars, Tiple, Guitar Synthesizers, Synclavier
Lyle Mays - Piano, Organ, Keyboards, Accordion, Trumpet, Synclavier
Steve Rodby – Acoustic and Electric Basses
Paul Wertico – Drums, Caja, Additional Percussion
Pedro Aznar – Voice, Acoustic Guitar, Marimba, Vibes, Tenor Sax, Charango, Melodica, Panpipe, Additional Percussion
Armando Marçal – Percussion
Produced by Pat Metheny
 
Log
Exact Audio Copy V1.1 from 23. June 2015
EAC extraction logfile from 13. January 2016, 0:19
Pat Metheny Group / Letter From Home (GED 24245)
Used drive  : HL-DT-STDVDRAM GE20NU11   Adapter: 1  ID: 0
Read mode               : Secure
Utilize accurate stream : Yes
Defeat audio cache      : Yes
Make use of C2 pointers : No
Read offset correction                      : 667
Overread into Lead-In and Lead-Out          : No
Fill up missing offset samples with silence : Yes
Delete leading and trailing silent blocks   : No
Null samples used in CRC calculations       : Yes
Used interface                              : Native Win32 interface for Win NT & 2000
Used output format              : User Defined Encoder
Selected bitrate                : 896 kBit/s
Quality                         : High
Add ID3 tag                     : No
Command line compressor         : C:\Program Files\EAC 3\Exact Audio Copy\Flac\flac.exe
Additional command line options : -V -8 %source%
TOC of the extracted CD
     Track |   Start  |  Length  | Start sector | End sector
    ---------------------------------------------------------
        1  |  0:00.33 |  6:25.57 |        33    |    28964
        2  |  6:26.15 |  7:13.50 |     28965    |    61489
        3  | 13:39.65 |  3:03.00 |     61490    |    75214
        4  | 16:42.65 |  6:55.20 |     75215    |   106359
        5  | 23:38.10 |  0:57.10 |    106360    |   110644
        6  | 24:35.20 |  7:54.53 |    110645    |   146247
        7  | 32:29.73 |  4:55.25 |    146248    |   168397
        8  | 37:25.23 |  5:26.42 |    168398    |   192889
        9  | 42:51.65 |  7:55.28 |    192890    |   228542
       10  | 50:47.18 |  3:03.42 |    228543    |   242309
       11  | 53:50.60 |  5:25.40 |    242310    |   266724
       12  | 59:16.25 |  2:34.58 |    266725    |   278332
Range status and errors
Selected range
     Filename C:\OdW\Pat Metheny Group\1989 - Letter From Home (GED 24245)\Pat Metheny Group - Letter From Home (GED 24245).wav
     Peak level 100.0 %
     Extraction speed 7.4 X
     Range quality 99.9 %
     Test CRC 49986FAD
     Copy CRC 49986FAD
     Copy OK
No errors occurred
AccurateRip summary
Track  1  accurately ripped (confidence 48)  [B3F16A77]  (AR v2)
Track  2  accurately ripped (confidence 46)  [3B59F983]  (AR v2)
Track  3  accurately ripped (confidence 48)  [787E78D4]  (AR v2)
Track  4  accurately ripped (confidence 48)  [AD56B3B5]  (AR v2)
Track  5  accurately ripped (confidence 47)  [780F3D41]  (AR v2)
Track  6  accurately ripped (confidence 49)  [2F1CB54B]  (AR v2)
Track  7  accurately ripped (confidence 47)  [79AB9C40]  (AR v2)
Track  8  accurately ripped (confidence 47)  [371D56BC]  (AR v2)
Track  9  accurately ripped (confidence 47)  [34C31E17]  (AR v2)
Track 10  accurately ripped (confidence 47)  [576DBBFC]  (AR v2)
Track 11  accurately ripped (confidence 45)  [169E3704]  (AR v2)
Track 12  accurately ripped (confidence 48)  [6E231037]  (AR v2)
All tracks accurately ripped
End of status report
---- CUETools DB Plugin V2.1.6
[CTDB TOCID: h_2OCqAtw3suV_ttQzb2Uc1exB8-] found
Submit result: h_2OCqAtw3suV_ttQzb2Uc1exB8- has been confirmed
Track | CTDB Status
  1   | (42/46) Accurately ripped
  2   | (42/46) Accurately ripped
  3   | (42/46) Accurately ripped
  4   | (42/46) Accurately ripped
  5   | (43/46) Accurately ripped
  6   | (44/46) Accurately ripped
  7   | (41/46) Accurately ripped
  8   | (44/46) Accurately ripped
  9   | (41/46) Accurately ripped
 10   | (42/46) Accurately ripped
 11   | (41/46) Accurately ripped
 12   | (29/46) Accurately ripped, or (12/46) differs in 1816 samples @02:31:19-02:31:21
==== Log checksum 3FDC432D53DF58C88438C958C0F85983C54A2CB09F911D19CD5187AAD27E0218 ====
 
.cue
REM GENRE "Jazz Fusion"
REM DATE 1989
REM DISCID 9E0E7F0C
REM COMMENT "ExactAudioCopy v1.1"
PERFORMER "Pat Metheny Group"
TITLE "Letter From Home (GED 24245)"
FILE "Pat Metheny Group - Letter From Home (GED 24245).flac" WAVE
  TRACK 01 AUDIO
    TITLE "Have You Heard"
    PERFORMER "Pat Metheny Group"
    INDEX 00 00:00:00
    INDEX 01 00:00:33
  TRACK 02 AUDIO
    TITLE "Every Summer Night"
    PERFORMER "Pat Metheny Group"
    INDEX 01 06:26:15
  TRACK 03 AUDIO
    TITLE "Better Days Ahead"
    PERFORMER "Pat Metheny Group"
    INDEX 01 13:39:65
  TRACK 04 AUDIO
    TITLE "Spring Ain't Here"
    PERFORMER "Pat Metheny Group"
    INDEX 00 16:42:08
    INDEX 01 16:42:65
  TRACK 05 AUDIO
    TITLE "45/8"
    PERFORMER "Pat Metheny Group"
    INDEX 00 23:37:38
    INDEX 01 23:38:10
  TRACK 06 AUDIO
    TITLE "5-5-7"
    PERFORMER "Pat Metheny Group"
    INDEX 00 24:33:20
    INDEX 01 24:35:20
  TRACK 07 AUDIO
    TITLE "Beat 70"
    PERFORMER "Pat Metheny Group"
    INDEX 01 32:29:73
  TRACK 08 AUDIO
    TITLE "Dream Of The Return"
    PERFORMER "Pat Metheny Group"
    INDEX 00 37:22:48
    INDEX 01 37:25:23
  TRACK 09 AUDIO
    TITLE "Are We There Yet"
    PERFORMER "Pat Metheny Group"
    INDEX 00 42:50:58
    INDEX 01 42:51:65
  TRACK 10 AUDIO
    TITLE "Vidala"
    PERFORMER "Pat Metheny Group"
    INDEX 01 50:47:18
  TRACK 11 AUDIO
    TITLE "Slip Away"
    PERFORMER "Pat Metheny Group"
    INDEX 01 53:50:60
  TRACK 12 AUDIO
    TITLE "Letter From Home"
    PERFORMER "Pat Metheny Group"
    INDEX 00 59:14:48
    INDEX 01 59:16:25
 
(1993) The Road To You (GED 24601)
THE ROAD TO YOU
Originally released: 1993
CD: Austria, Geffen, GED 24601, (1993)
Total time: 74:01
[font= Arial]01. Have You Heard (6:47)
02. First Circle (8:39)
03. The Road to You (5:45)
04. Half Life of Absolution (15:16)
05. Last Train Home (5:19)
06. Better Days Ahead (5:12)
07. Naked Moon (5:29)
08. Beat 70 (5:05)
09. Letter from Home (2:33)
10. Third Wind (9:49)
11. Solo from "More Travels" (3:40)
 
Credits
Pat Metheny – Guitar, Guitar synthesizer
Lyle Mays – Piano, Keyboards
Steve Rodby – Acoustic and Electric Bass
Paul Wertico – Drums
Armando Marçal – Percussion, Timbales, Congas, Voice
Pedro Aznar – Voice, Acoustic guitar, Percussion, Saxophone, Steel drums, Vibraphone, Marimba, Melodica
Produced by Pat Metheny
Recorded live on a European tour in 1991.
 
Log
Exact Audio Copy V1.1 from 23. June 2015
EAC extraction logfile from 13. January 2016, 17:58
Pat Metheny Group / The Road To You (GED 24601)
Used drive  : HL-DT-STDVDRAM GE20NU11   Adapter: 1  ID: 0
Read mode               : Secure
Utilize accurate stream : Yes
Defeat audio cache      : Yes
Make use of C2 pointers : No
Read offset correction                      : 667
Overread into Lead-In and Lead-Out          : No
Fill up missing offset samples with silence : Yes
Delete leading and trailing silent blocks   : No
Null samples used in CRC calculations       : Yes
Used interface                              : Native Win32 interface for Win NT & 2000
Used output format              : User Defined Encoder
Selected bitrate                : 896 kBit/s
Quality                         : High
Add ID3 tag                     : No
Command line compressor         : C:\Program Files\EAC 3\Exact Audio Copy\Flac\flac.exe
Additional command line options : -V -8 %source%
TOC of the extracted CD
     Track |   Start  |  Length  | Start sector | End sector
    ---------------------------------------------------------
        1  |  0:00.00 |  6:47.07 |         0    |    30531
        2  |  6:47.07 |  9:02.43 |     30532    |    71224
        3  | 15:49.50 |  5:45.22 |     71225    |    97121
        4  | 21:34.72 | 15:16.58 |     97122    |   165879
        5  | 36:51.55 |  5:19.00 |    165880    |   189804
        6  | 42:10.55 |  5:12.27 |    189805    |   213231
        7  | 47:23.07 |  5:29.35 |    213232    |   237941
        8  | 52:52.42 |  5:05.53 |    237942    |   260869
        9  | 57:58.20 |  2:33.02 |    260870    |   272346
       10  | 60:31.22 |  9:49.53 |    272347    |   316574
       11  | 70:21.00 |  3:40.25 |    316575    |   333099
Range status and errors
Selected range
     Filename C:\OdW\Pat Metheny Group\1993 - The Road To You (GED 24601)\Pat Metheny Group - The Road To You (GED 24601).wav
     Peak level 99.8 %
     Extraction speed 7.6 X
     Range quality 100.0 %
     Test CRC 4A63B727
     Copy CRC 4A63B727
     Copy OK
No errors occurred
AccurateRip summary
Track  1  accurately ripped (confidence 70)  [96BA55A2]  (AR v2)
Track  2  accurately ripped (confidence 70)  [11EC6DDB]  (AR v2)
Track  3  accurately ripped (confidence 69)  [34FDD33E]  (AR v2)
Track  4  accurately ripped (confidence 67)  [7AD32C00]  (AR v2)
Track  5  accurately ripped (confidence 68)  [2C4BB147]  (AR v2)
Track  6  accurately ripped (confidence 67)  [7B9E39A5]  (AR v2)
Track  7  accurately ripped (confidence 68)  [EF8B1BEB]  (AR v2)
Track  8  accurately ripped (confidence 67)  [7D88BF9E]  (AR v2)
Track  9  accurately ripped (confidence 69)  [E22D03DD]  (AR v2)
Track 10  accurately ripped (confidence 66)  [AFD43F5B]  (AR v2)
Track 11  accurately ripped (confidence 64)  [A7971598]  (AR v2)
All tracks accurately ripped
End of status report
---- CUETools DB Plugin V2.1.6
[CTDB TOCID: ySEpyIsnlx2nen0U5NptwmpUlNc-] found
Submit result: ySEpyIsnlx2nen0U5NptwmpUlNc- has been confirmed
Track | CTDB Status
  1   | (95/95) Accurately ripped
  2   | (95/95) Accurately ripped
  3   | (95/95) Accurately ripped
  4   | (95/95) Accurately ripped
  5   | (95/95) Accurately ripped
  6   | (95/95) Accurately ripped
  7   | (95/95) Accurately ripped
  8   | (93/95) Accurately ripped
  9   | (94/95) Accurately ripped
 10   | (92/95) Accurately ripped
 11   | (92/95) Accurately ripped
==== Log checksum 48B4DE15520B5E53E6238F308B0D1F77A955F08791079A6AB9ED0B44EAA740C8 ====
 
.cue
REM GENRE "Jazz Fusion"
REM DATE 1993
REM DISCID 8F11590B
REM COMMENT "ExactAudioCopy v1.1"
PERFORMER "Pat Metheny Group"
TITLE "The Road To You (GED 24601)"
FILE "Pat Metheny Group - The Road To You (GED 24601).flac" WAVE
  TRACK 01 AUDIO
    TITLE "Have You Heard"
    PERFORMER "Pat Metheny Group"
    INDEX 01 00:00:00
  TRACK 02 AUDIO
    TITLE "First Circle"
    PERFORMER "Pat Metheny Group"
    INDEX 01 06:47:07
  TRACK 03 AUDIO
    TITLE "The Road To You"
    PERFORMER "Pat Metheny Group"
    INDEX 01 15:49:50
  TRACK 04 AUDIO
    TITLE "Half Life Of Absolution"
    PERFORMER "Pat Metheny Group"
    INDEX 01 21:34:72
  TRACK 05 AUDIO
    TITLE "Last Train Home"
    PERFORMER "Pat Metheny Group"
    INDEX 01 36:51:55
  TRACK 06 AUDIO
    TITLE "Better Days Ahead"
    PERFORMER "Pat Metheny Group"
    INDEX 01 42:10:55
  TRACK 07 AUDIO
    TITLE "Naked Moon"
    PERFORMER "Pat Metheny Group"
    INDEX 01 47:23:07
  TRACK 08 AUDIO
    TITLE "Beat 70"
    PERFORMER "Pat Metheny Group"
    INDEX 01 52:52:42
  TRACK 09 AUDIO
    TITLE "Letter From Home"
    PERFORMER "Pat Metheny Group"
    INDEX 01 57:58:20
  TRACK 10 AUDIO
    TITLE "Third Wind"
    PERFORMER "Pat Metheny Group"
    INDEX 01 60:31:22
  TRACK 11 AUDIO
    TITLE "Solo From 'More Travels'"
    PERFORMER "Pat Metheny Group"
    INDEX 00 70:16:72
    INDEX 01 70:21:00
 
(1995) We Live Here (GED 24729)
WE LIVE HERE
Originally released: 1995
CD: Germany, Geffen, GED 24729, (1995)
Total time: 67:07
1. Here to Stay (7:39)
2. And Then I Knew (7:52)
3. The Girls Next Door (5:29)
4. To the End of the World (12:14)
5. We Live Here (4:12)
6. Episode d'Azur (8:45)
7. Something to Remind You (7:03)
8. Red Sky (7:35)
9. Stranger in Town (6:13)
 
Credits
Pat Metheny - Guitars
Lyle Mays - Piano, Keyboards
Steve Rodby - Acoustic Bass, Electric Bass
Paul Wertico - Drums
David Blamires - Vocals
Mark Ledford - Vocals, Trumpet
Luis Conte - Percussion
Sammy Merendino - Drum Programming
Dave Samuels - Cymbal Rolls
Produced by Pat Metheny
 
Log
Exact Audio Copy V1.1 from 23. June 2015
EAC extraction logfile from 13. January 2016, 17:34
Pat Metheny Group / We Live Here (GED 24729)
Used drive  : HL-DT-STDVDRAM GE20NU11   Adapter: 1  ID: 0
Read mode               : Secure
Utilize accurate stream : Yes
Defeat audio cache      : Yes
Make use of C2 pointers : No
Read offset correction                      : 667
Overread into Lead-In and Lead-Out          : No
Fill up missing offset samples with silence : Yes
Delete leading and trailing silent blocks   : No
Null samples used in CRC calculations       : Yes
Used interface                              : Native Win32 interface for Win NT & 2000
Used output format              : User Defined Encoder
Selected bitrate                : 896 kBit/s
Quality                         : High
Add ID3 tag                     : No
Command line compressor         : C:\Program Files\EAC 3\Exact Audio Copy\Flac\flac.exe
Additional command line options : -V -8 %source%
TOC of the extracted CD
     Track |   Start  |  Length  | Start sector | End sector
    ---------------------------------------------------------
        1  |  0:00.32 |  7:39.23 |        32    |    34479
        2  |  7:39.55 |  7:52.62 |     34480    |    69941
        3  | 15:32.42 |  5:29.48 |     69942    |    94664
        4  | 21:02.15 | 12:14.47 |     94665    |   149761
        5  | 33:16.62 |  4:12.30 |    149762    |   168691
        6  | 37:29.17 |  8:45.15 |    168692    |   208081
        7  | 46:14.32 |  7:03.63 |    208082    |   239869
        8  | 53:18.20 |  7:35.50 |    239870    |   274044
        9  | 60:53.70 |  6:13.37 |    274045    |   302056
Range status and errors
Selected range
     Filename C:\OdW\Pat Metheny Group\1995 - We Live Here (GED 24729)\Pat Metheny Group - We Live Here (GED 24729).wav
     Peak level 99.8 %
     Extraction speed 7.5 X
     Range quality 100.0 %
     Test CRC A54F1C61
     Copy CRC A54F1C61
     Copy OK
No errors occurred
AccurateRip summary
Track  1  accurately ripped (confidence 107)  [98018CDE]  (AR v2)
Track  2  accurately ripped (confidence 107)  [AC2753D4]  (AR v2)
Track  3  accurately ripped (confidence 107)  [84B8D286]  (AR v2)
Track  4  accurately ripped (confidence 108)  [6B775063]  (AR v2)
Track  5  accurately ripped (confidence 105)  [E60C25A2]  (AR v2)
Track  6  accurately ripped (confidence 106)  [F132B360]  (AR v2)
Track  7  accurately ripped (confidence 106)  [0EF5FE5A]  (AR v2)
Track  8  accurately ripped (confidence 108)  [46C6D958]  (AR v2)
Track  9  accurately ripped (confidence 104)  [4B0F4944]  (AR v2)
All tracks accurately ripped
End of status report
---- CUETools DB Plugin V2.1.6
[CTDB TOCID: Nd..mWOH7.g6JpckD43X1N9tOwY-] found
Submit result: Nd..mWOH7.g6JpckD43X1N9tOwY- has been confirmed
Track | CTDB Status
  1   | (87/90) Accurately ripped
  2   | (87/90) Accurately ripped
  3   | (60/90) Accurately ripped
  4   | (60/90) Accurately ripped
  5   | (87/90) Accurately ripped
  6   | (60/90) Accurately ripped
  7   | (61/90) Accurately ripped
  8   | (59/90) Accurately ripped
  9   | (59/90) Accurately ripped
==== Log checksum 8D0269903118166B324B2A166CD947C3252F1896EEA88B21357E8CC99EE31BFA ====
 
.cue
REM GENRE Jazz
REM DATE 1995
REM DISCID 7D0FBB09
REM COMMENT "ExactAudioCopy v1.1"
PERFORMER "Pat Metheny Group"
TITLE "We Live Here (GED 24729)"
FILE "Pat Metheny Group - We Live Here (GED 24729).flac" WAVE
  TRACK 01 AUDIO
    TITLE "Here to Stay"
    PERFORMER "Pat Metheny Group"
    INDEX 00 00:00:00
    INDEX 01 00:00:32
  TRACK 02 AUDIO
    TITLE "And Then I Knew"
    PERFORMER "Pat Metheny Group"
    INDEX 00 07:38:55
    INDEX 01 07:39:55
  TRACK 03 AUDIO
    TITLE "The Girls Next Door"
    PERFORMER "Pat Metheny Group"
    INDEX 00 15:31:30
    INDEX 01 15:32:42
  TRACK 04 AUDIO
    TITLE "To the End of the World"
    PERFORMER "Pat Metheny Group"
    INDEX 00 21:02:13
    INDEX 01 21:02:15
  TRACK 05 AUDIO
    TITLE "We Live Here"
    PERFORMER "Pat Metheny Group"
    INDEX 00 33:15:55
    INDEX 01 33:16:62
  TRACK 06 AUDIO
    TITLE "Episode d'azur"
    PERFORMER "Pat Metheny Group"
    INDEX 00 37:28:68
    INDEX 01 37:29:17
  TRACK 07 AUDIO
    TITLE
21:34
1438
Нет комментариев. Ваш будет первым!