Поиск

1980 The Crusaders - Rhapsody And Blues (1984) {MCA, Victor VDP-19} [CD]

1980 The Crusaders - Rhapsody And Blues (1984) {MCA, Victor VDP-19} [CD]
Стили:

Треклист:

1. Soul Shadows (08:14)
2. Honky Tonk Struttin' (04:25)
3. Elegant Evening (06:01)
4. Rhapsody And Blues (08:47)
5. Last Call (06:40)
6. Sweet Gentle Love (04:55)

Состав:
  • Roland Bautista    Guitar
  • Paulinho Da Costa    Percussion
  • Wilton Felder    Bass, Composer, Producer, Sax (Alto), Sax (Soprano), Sax (Tenor), Saxophone
  • Stix Hooper    Composer, Drums, Percussion, Producer
  • Alphonso Johnson    Bass
  • Rory Kaplan    Programming
  • Abraham Laboriel, Sr.    Bass
  • Bob Mann    Guitar
  • Robert Mann    Guitar
  • Dean Parks    Guitar
  • Ralph Rickert    Trumpet
  • Joe Sample    Composer, Keyboards, Producer, Synthesizer, Synthesizer Arrangements
  • Sheila E.    Percussion
  • Phil Upchurch    Guitar
  • Philip Upchurch, Sr.    Guitar
  • Bill Withers    Vocals
Лог создания рипа
Exact Audio Copy V1.0 beta 3 from 29. August 2011

Отчёт EAC об извлечении, выполненном 28. июня 2013, 19:09

The Crusaders / Rhapsody And Blues [VDP-19]

Дисковод: TSSTcorpCDDVDW SH-224BB   Adapter: 0  ID: 2

Режим чтения                 : Достоверность
Использование точного потока : Да
Отключение кэша аудио        : Да
Использование указателей C2  : Нет

Коррекция смещения при чтении                     : 6
Способность читать области Lead-in и Lead-out     : Нет
Заполнение пропущенных сэмплов тишиной            : Да
Удаление блоков с тишиной в начале и конце        : Нет
При вычислениях CRC использовались нулевые сэмплы : Да
Интерфейс                                         : Встроенный Win32-интерфейс для Win NT/2000

Выходной формат          : Пользовательский кодировщик
Выбранный битрейт        : 128 kBit/s
Качество                 : Высокий
Добавление ID3-тега      : Нет
Утилита сжатия           : C:\Program Files\Exact Audio Copy\Flac\flac.exe
Дополнительные параметры : -V -8 -T "Date=%year%" -T "Genre=%genre%" %source%

TOC извлечённого CD

     Трек |   Старт  | Длительность | Начальный сектор | Конечный сектор
    ---------------------------------------------------------------------
       1  |  0:00.37 |    8:14.06   |          37      |      37092
       2  |  8:14.43 |    4:24.70   |       37093      |      56962
       3  | 12:39.38 |    6:00.58   |       56963      |      84020
       4  | 18:40.21 |    8:47.05   |       84021      |     123550
       5  | 27:27.26 |    6:39.69   |      123551      |     153544
       6  | 34:07.20 |    4:55.15   |      153545      |     175684

Характеристики диапазона извлечения и сообщения об ошибках

Выбранный диапазон

     Имя файла C:\Music\Crusaders\1980 Rhapsody And Blues\The Crusaders - Rhapsody And Blues [VDP-19].wav

     Пиковый уровень 100.0 %
     Скорость извлечения 2.3 X
     Качество диапазона 100.0 %
     CRC копии 7E82A241
     Копирование... OK

Ошибок не произошло

AccurateRip: сводка

Трек  1  : извлечено точно (доверие 1)  [7C4914BA]  (AR v1)
Трек  2  : извлечено точно (доверие 1)  [1C90B6F3]  (AR v1)
Трек  3  : извлечено точно (доверие 1)  [9878548B]  (AR v1)
Трек  4  : извлечено точно (доверие 1)  [5CF5A3A2]  (AR v1)
Трек  5  : извлечено точно (доверие 1)  [5203B700]  (AR v1)
Трек  6  : извлечено точно (доверие 1)  [B7B28E07]  (AR v1)

Все треки извлечены точно

Конец отчёта

==== Контрольная сумма отчёта 976596E19F2D179091B89096FF081C78DBAD094AFB54C7836BB7FCA864492453 ====
22:02
1099
12:27
Где ж тут ссылка, чтоб сердцу стало веселей ???