Поиск

1981-2009 Michel Petrucciani - Collection, 30 Releases [37 CD]

1981-2009 Michel Petrucciani - Collection, 30 Releases [37 CD]
Треклист:
Год издания: 1981-2009
Издатель (лейбл): OWL, Blue Note, Dreyfus
Аудиокодек: FLAC (*.flac)
Тип рипа: image+.cue/tracks+.cue
Битрейт аудио: lossless
Продолжительность: 31:41:58
Наличие сканов в содержимом раздачи: да 
 
 
 
1981 • Michel Petrucciani - Michel Petrucciani Trio
Год издания: 2001
Издатель (лейбл): OWL
Номер по каталогу: 013 431 2
Тип рипа: tracks+.cue
Продолжительность: 37:39
Rip by Sarchiapone
Наличие сканов в содержимом раздачи: да
Треклист:
01. Hoomage A Enelram Atsenig (4:21)
02. Days Of Wine And Roses (7:18)
03. Christmas Dreams (7:15)
04. Juste Un Moment (6:02)
05. Gattito (6:08)
06. Cherokee (6:34)
Personnel:
Michel Petrucciani - p
J.F Jenny Clark - b
Aldo Romano - d
Rec.: Spitsbergen Studio, Holland, April 3 & 4, 1981.
 
 
 
Лог создания рипа
EAC extraction logfile from 24. September 2007, 14:17 for CD
Michel Petrucciani / Michel Petrucciani Trio
Used drive  : PLEXTOR DVDR   PX-716A   Adapter: 1  ID: 0
Read mode   : Secure with NO C2, accurate stream, disable cache
Read offset correction : 30
Overread into Lead-In and Lead-Out : No
Used output format : Internal WAV Routines
                     44.100 Hz; 16 Bit; Stereo
Other options      :
    Fill up missing offset samples with silence : Yes
    Delete leading and trailing silent blocks : No
    Installed external ASPI interface
Track  1
     Filename F:\[MyRip]\01 - Hoomage A Enelram Atsenig.wav
     Pre-gap length  0:00:02.00
     Peak level 100.0 %
     Track quality 100.0 %
     Test CRC 2EB58C89
     Copy CRC 2EB58C89
     Copy OK
Track  2
     Filename F:\[MyRip]\02 - Days Of Wine And Roses.wav
     Peak level 93.9 %
     Track quality 100.0 %
     Test CRC 53711CC1
     Copy CRC 53711CC1
     Copy OK
Track  3
     Filename F:\[MyRip]\03 - Christmas Dreams.wav
     Pre-gap length  0:00:01.72
     Peak level 89.1 %
     Track quality 100.0 %
     Test CRC E41BD3C3
     Copy CRC E41BD3C3
     Copy OK
Track  4
     Filename F:\[MyRip]\04 - Juste Un Moment.wav
     Pre-gap length  0:00:05.10
     Peak level 100.0 %
     Track quality 100.0 %
     Test CRC ED43A89E
     Copy CRC ED43A89E
     Copy OK
Track  5
     Filename F:\[MyRip]\05 - Gattito.wav
     Pre-gap length  0:00:01.10
     Peak level 100.0 %
     Track quality 99.9 %
     Test CRC 93E3FED6
     Copy CRC 93E3FED6
     Copy OK
Track  6
     Filename F:\[MyRip]\06 - Cherokee.wav
     Pre-gap length  0:00:01.47
     Peak level 100.0 %
     Track quality 100.0 %
     Test CRC DFEFCD56
     Copy CRC DFEFCD56
     Copy OK
No errors occured
End of status report
------------------------------------------------------------
EAC extraction logfile from 24. September 2007, 14:17 for CD
Michel Petrucciani / Michel Petrucciani Trio
Used drive  : PLEXTOR DVDR   PX-716A   Adapter: 1  ID: 0
Read mode   : Secure with NO C2, accurate stream, disable cache
Read offset correction : 30
Overread into Lead-In and Lead-Out : No
Used output format : Internal WAV Routines
                     44.100 Hz; 16 Bit; Stereo
Other options      :
    Fill up missing offset samples with silence : Yes
    Delete leading and trailing silent blocks : No
    Installed external ASPI interface
Track  1
     Filename F:\[MyRip]\01 - Hoomage A Enelram Atsenig.wav
     Pre-gap length  0:00:02.00
     Peak level 100.0 %
     Track quality 100.0 %
     Test CRC 2EB58C89
     Copy CRC 2EB58C89
     Copy OK
Track  2
     Filename F:\[MyRip]\02 - Days Of Wine And Roses.wav
     Peak level 93.9 %
     Track quality 100.0 %
     Test CRC 53711CC1
     Copy CRC 53711CC1
     Copy OK
Track  3
     Filename F:\[MyRip]\03 - Christmas Dreams.wav
     Pre-gap length  0:00:01.72
     Peak level 89.1 %
     Track quality 100.0 %
     Test CRC E41BD3C3
     Copy CRC E41BD3C3
     Copy OK
Track  4
     Filename F:\[MyRip]\04 - Juste Un Moment.wav
     Pre-gap length  0:00:05.10
     Peak level 100.0 %
     Track quality 100.0 %
     Test CRC ED43A89E
     Copy CRC ED43A89E
     Copy OK
Track  5
     Filename F:\[MyRip]\05 - Gattito.wav
     Pre-gap length  0:00:01.10
     Peak level 100.0 %
     Track quality 99.9 %
     Test CRC 93E3FED6
     Copy CRC 93E3FED6
     Copy OK
Track  6
     Filename F:\[MyRip]\06 - Cherokee.wav
     Pre-gap length  0:00:01.47
     Peak level 100.0 %
     Track quality 100.0 %
     Test CRC DFEFCD56
     Copy CRC DFEFCD56
     Copy OK
No errors occured
End of status report
 
 
Содержание индексной карты (.CUE)
REM GENRE Jazz
REM DATE 1981
REM DISCID 4B08D206
REM COMMENT "ExactAudioCopy v0.95b3"
PERFORMER "Michel Petrucciani"
TITLE "Michel Petrucciani Trio"
FILE "01. Hoomage A Enelram Atsenig.flac" WAVE
  TRACK 01 AUDIO
    TITLE "Hoomage A Enelram Atsenig"
    PERFORMER "Michel Petrucciani"
    INDEX 01 00:00:00
FILE "02. Days Of Wine And Roses.flac" WAVE
  TRACK 02 AUDIO
    TITLE "Days Of Wine And Roses"
    PERFORMER "Michel Petrucciani"
    INDEX 01 00:00:00
  TRACK 03 AUDIO
    TITLE "Christmas Dreams"
    PERFORMER "Michel Petrucciani"
    INDEX 00 07:15:73
FILE "03. Christmas Dreams.flac" WAVE
    INDEX 01 00:00:00
  TRACK 04 AUDIO
    TITLE "Juste Un Moment"
    PERFORMER "Michel Petrucciani"
    INDEX 00 07:09:48
FILE "04. Juste Un Moment.flac" WAVE
    INDEX 01 00:00:00
  TRACK 05 AUDIO
    TITLE "Gattito"
    PERFORMER "Michel Petrucciani"
    INDEX 00 06:00:57
FILE "05. Gattito.flac" WAVE
    INDEX 01 00:00:00
  TRACK 06 AUDIO
    TITLE "Cherokee"
    PERFORMER "Michel Petrucciani"
    INDEX 00 06:06:48
FILE "06. Cherokee.flac" WAVE
    INDEX 01 00:00:00
 
 
CUETools log
[CUETools log; Date: 28.06.2012 18:35:26; Version: 2.0.9]
[CTDB TOCID: p3C5bZiE25dLAoImumRD7khoHc8-] found.
        [ CTDBID ] Status
        [babfc11a] (5/5) Accurately ripped
[AccurateRip ID: 0008d40c-002fa5f9-4b08d206] found.
Track   [ CRC    ] Status
 01     [9ae14c33] (04/10) Accurately ripped
 02     [62769b0b] (04/10) Accurately ripped
 03     [0760195d] (04/10) Accurately ripped
 04     [e131cab5] (04/10) Accurately ripped
 05     [a9497a80] (04/10) Accurately ripped
 06     [db5d016e] (04/10) Accurately ripped
Offsetted by 664:
 01     [c7a59983] (03/10) No match but offset
 02     [2bf46ab3] (03/10) No match but offset
 03     [b265db3d] (03/10) No match but offset
 04     [4855fcfd] (03/10) No match but offset
 05     [66581700] (03/10) No match but offset
 06     [ad44ab5e] (03/10) No match but offset
Track Peak [ CRC32  ] [W/O NULL]
 --  100,0 [D628B7F9] [6F2C23E9]
 01  100,0 [2EB58C89] [5C1D5C95]
 02   93,9 [53711CC1] [BCFCA9E7]
 03   89,1 [E41BD3C3] [212F9AB9]
 04  100,0 [ED43A89E] [C4DBAEFD]
 05  100,0 [93E3FED6] [5E4A3FE4]
 06  100,0 [DFEFCD56] [53EECE42]
 
 
1981 • Michel Petrucciani - Date With Time
Год издания: 1991
Издатель (лейбл): OWL
Номер по каталогу: R2 79249
Тип рипа: tracks+.cue
Продолжительность: 44:23
Rip by Sarchiapone
Наличие сканов в содержимом раздачи: да
Треклист:
01. Santa Barbara (6:51)
02. Afro Blue (5:33)
03. Round About Midnight (10:13)
04. Memphis Green (5:37)
05. Mike Pee (10:25)
06. Bumpin' On The Sunset (5:44)
Michel Petrucciani - piano solo
Rec.: Acousti Studio, Paris, December 15, 1981.
 
 
 
Лог создания рипа
Exact Audio Copy V1.0 beta 2 from 29. April 2011
EAC extraction logfile from 22. March 2012, 18:32
Michel Petrucciani / Date With Time
Used drive  : PLEXTOR CD-R   PREMIUM2   Adapter: 1  ID: 1
Read mode               : Secure
Utilize accurate stream : Yes
Defeat audio cache      : Yes
Make use of C2 pointers : No
Read offset correction                      : 30
Overread into Lead-In and Lead-Out          : No
Fill up missing offset samples with silence : Yes
Delete leading and trailing silent blocks   : No
Null samples used in CRC calculations       : Yes
Used interface                              : Installed external ASPI interface
Gap handling                                : Appended to previous track
Used output format              : User Defined Encoder
Selected bitrate                : 256 kBit/s
Quality                         : High
Add ID3 tag                     : No
Command line compressor         : C:\Programmi\eac-1.00\Flac\flac.exe
Additional command line options : -8 -V -T "ARTIST=%artist%" -T "TITLE=%title%" -T "ALBUM=%albumtitle%" -T "DATE=%year%" -T "TRACKNUMBER=%tracknr%" %source%
TOC of the extracted CD
     Track |   Start  |  Length  | Start sector | End sector
    ---------------------------------------------------------
        1  |  0:00.50 |  6:51.10 |        50    |    30884
        2  |  6:51.60 |  5:33.20 |     30885    |    55879
        3  | 12:25.05 | 10:12.52 |     55880    |   101831
        4  | 22:37.57 |  5:36.65 |    101832    |   127096
        5  | 28:14.47 | 10:25.03 |    127097    |   173974
        6  | 38:39.50 |  5:44.30 |    173975    |   199804
Track  1
     Filename D:\My Rip\01 - Santa Barbara.wav
     Pre-gap length  0:00:02.50
     Peak level 100.0 %
     Extraction speed 8.8 X
     Track quality 100.0 %
     Test CRC 3B7A2C5F
     Copy CRC 3B7A2C5F
     Accurately ripped (confidence 2)  [51FC2E10]  (AR v1)
     Copy OK
Track  2
     Filename D:\My Rip\02 - Afro Blues.wav
     Pre-gap length  0:00:03.23
     Peak level 73.2 %
     Extraction speed 10.1 X
     Track quality 100.0 %
     Test CRC BE600B36
     Copy CRC BE600B36
     Accurately ripped (confidence 2)  [07EA6B68]  (AR v1)
     Copy OK
Track  3
     Filename D:\My Rip\03 - Round About Midnight.wav
     Pre-gap length  0:00:03.73
     Peak level 86.4 %
     Extraction speed 11.7 X
     Track quality 100.0 %
     Test CRC 13F89892
     Copy CRC 13F89892
     Accurately ripped (confidence 2)  [7DD035BA]  (AR v1)
     Copy OK
Track  4
     Filename D:\My Rip\04 - Memphis Green.wav
     Pre-gap length  0:00:02.40
     Peak level 94.4 %
     Extraction speed 12.5 X
     Track quality 100.0 %
     Test CRC EB6DBA83
     Copy CRC EB6DBA83
     Accurately ripped (confidence 2)  [99B07B71]  (AR v1)
     Copy OK
Track  5
     Filename D:\My Rip\05 - Mike Pee.wav
     Pre-gap length  0:00:01.20
     Peak level 90.3 %
     Extraction speed 14.1 X
     Track quality 100.0 %
     Test CRC 2423DAFC
     Copy CRC 2423DAFC
     Accurately ripped (confidence 2)  [3A56399D]  (AR v1)
     Copy OK
Track  6
     Filename D:\My Rip\06 - Bumpin' on the Sunset.wav
     Pre-gap length  0:00:01.70
     Peak level 83.8 %
     Extraction speed 14.9 X
     Track quality 100.0 %
     Test CRC A7F17850
     Copy CRC A7F17850
     Accurately ripped (confidence 2)  [95F60226]  (AR v1)
     Copy OK
All tracks accurately ripped
No errors occurred
End of status report
==== Log checksum C129B59481CD671A04C6041B20FE02F930878813A5D49C3D283C97CFAD50528E ====
 
 
Содержание индексной карты (.CUE)
REM GENRE Jazz
REM DATE 1981
REM DISCID 4C0A6806
REM COMMENT "ExactAudioCopy v1.0b2"
PERFORMER "Michel Petrucciani"
TITLE "Date With Time"
FILE "01. Santa Barbara.flac" WAVE
  TRACK 01 AUDIO
    TITLE "Santa Barbara"
    PERFORMER "Michel Petrucciani"
    PREGAP 00:00:50
    INDEX 01 00:00:00
  TRACK 02 AUDIO
    TITLE "Afro Blue"
    PERFORMER "Michel Petrucciani"
    INDEX 00 06:47:62
FILE "02. Afro Blue.flac" WAVE
    INDEX 01 00:00:00
  TRACK 03 AUDIO
    TITLE "Round About Midnight"
    PERFORMER "Michel Petrucciani"
    INDEX 00 05:29:22
FILE "03. Round About Midnight.flac" WAVE
    INDEX 01 00:00:00
  TRACK 04 AUDIO
    TITLE "Memphis Green"
    PERFORMER "Michel Petrucciani"
    INDEX 00 10:10:12
FILE "04. Memphis Green.flac" WAVE
    INDEX 01 00:00:00
  TRACK 05 AUDIO
    TITLE "Mike Pee"
    PERFORMER "Michel Petrucciani"
    INDEX 00 05:35:45
FILE "05. Mike Pee.flac" WAVE
    INDEX 01 00:00:00
  TRACK 06 AUDIO
    TITLE "Bumpin' On The Sunset"
    PERFORMER "Michel Petrucciani"
    INDEX 00 10:23:08
FILE "06. Bumpin' On The Sunset.flac" WAVE
    INDEX 01 00:00:00
 
 
CUETools log
[CUETools log; Date: 28.06.2012 23:21:13; Version: 2.0.9]
Pregap length 00:00:50.
[AccurateRip ID: 000a8574-0038aec6-4c0a6806] found.
Track   [ CRC    ] Status
 01     [51fc2e10] (2/2) Accurately ripped
 02     [07ea6b68] (2/2) Accurately ripped
 03     [7dd035ba] (2/2) Accurately ripped
 04     [99b07b71] (2/2) Accurately ripped
 05     [3a56399d] (2/2) Accurately ripped
 06     [95f60226] (2/2) Accurately ripped
Track Peak [ CRC32  ] [W/O NULL]
 --  100,0 [3804061C] [96BA9832]
 01  100,0 [3B7A2C5F] [7B3142C2]
 02   73,2 [BE600B36] [0277255C]
 03   86,4 [13F89892] [D25372DD]
 04   94,4 [EB6DBA83] [E2B97A82]
 05   90,3 [2423DAFC] [428D13BB]
 06   83,8 [A7F17850] [3C7D25CE]
 
 
1982 • Michel Petrucciani Trio - Estate
Год издания: ?
Издатель (лейбл): IRD
Номер по каталогу: TDM 001-2
Тип рипа: tracks+.cue
Продолжительность: 33:45
Источник: web
Наличие сканов в содержимом раздачи: да
Треклист:
01. Pasolini (5:29)
02. Very Early (4:56)
03. Estate (5:47)
04. Maybe Yes (3:46)
05. I Just Say Hello (6:17)
06. Tone Poem (4:12)
07. Samba Des Prophetes (3:18)
Personnel:
Michel Petrucciani - p
Furio Di Castri - b
Aldo Romano - d
Rec.: Forum Rec. Studio, Rome, Italy, March 29 & 30, April 16 & May 5, 1982.
 
 
 
Лог создания рипа
Exact Audio Copy V0.99 prebeta 4 from 23. January 2008
EAC extraction logfile from 22. December 2008, 23:57
Michel Petrucciani / Estate
Used drive  : TSSTcorpCD/DVDW TS-L532M   Adapter: 1  ID: 1
Read mode               : Secure
Utilize accurate stream : Yes
Defeat audio cache      : Yes
Make use of C2 pointers : No
Read offset correction                      : 116
Overread into Lead-In and Lead-Out          : No
Fill up missing offset samples with silence : Yes
Delete leading and trailing silent blocks   : No
Null samples used in CRC calculations       : No
Used interface                              : Native Win32 interface for Win NT & 2000
Gap handling                                : Appended to previous track
Used output format              : User Defined Encoder
Selected bitrate                : 1024 kBit/s
Quality                         : High
Add ID3 tag                     : No
Command line compressor         : C:\Program Files\Exact Audio Copy\FLAC\FLAC.EXE
Additional command line options : -6 -V -T "ARTIST=%a" -T "TITLE=%t" -T "ALBUM=%g" -T "DATE=%y" -T "TRACKNUMBER=%n" -T "GENRE=%m" -T "COMMENT=%e" %s -o %d
TOC of the extracted CD
     Track |   Start  |  Length  | Start sector | End sector
    ---------------------------------------------------------
        1  |  0:00.33 |  5:29.00 |        33    |    24707
        2  |  5:29.33 |  4:56.00 |     24708    |    46907
        3  | 10:25.33 |  5:47.00 |     46908    |    72932
        4  | 16:12.33 |  3:46.00 |     72933    |    89882
        5  | 19:58.33 |  6:17.00 |     89883    |   118157
        6  | 26:15.33 |  4:12.00 |    118158    |   137057
        7  | 30:27.33 |  3:18.00 |    137058    |   151907
Track  1
     Filename E:\Muzika\Michel Petrucciani Trio\Estate\Estate\01. Pasolini.wav
     Pre-gap length  0:00:02.33
     Peak level 90.3 %
     Track quality 100.0 %
     Test CRC 61B8A2DC
     Copy CRC 61B8A2DC
     Track not present in AccurateRip database
     Copy OK
Track  2
     Filename E:\Muzika\Michel Petrucciani Trio\Estate\Estate\02. Very Early.wav
     Peak level 95.5 %
     Track quality 100.0 %
     Test CRC 267FD82D
     Copy CRC 267FD82D
     Track not present in AccurateRip database
     Copy OK
Track  3
     Filename E:\Muzika\Michel Petrucciani Trio\Estate\Estate\03. Estate.wav
     Peak level 43.9 %
     Track quality 99.9 %
     Test CRC D60C76A5
     Copy CRC D60C76A5
     Track not present in AccurateRip database
     Copy OK
Track  4
     Filename E:\Muzika\Michel Petrucciani Trio\Estate\Estate\04. Maybe Yes.wav
     Peak level 63.4 %
     Track quality 100.0 %
     Test CRC 1C279A77
     Copy CRC 1C279A77
     Track not present in AccurateRip database
     Copy OK
Track  5
     Filename E:\Muzika\Michel Petrucciani Trio\Estate\Estate\05. I Just Say Hello.wav
     Peak level 60.1 %
     Track quality 100.0 %
     Test CRC 59833E9B
     Copy CRC 59833E9B
     Track not present in AccurateRip database
     Copy OK
Track  6
     Filename E:\Muzika\Michel Petrucciani Trio\Estate\Estate\06. Tone Poem.wav
     Peak level 75.2 %
     Track quality 99.9 %
     Test CRC 4CDB87AA
     Copy CRC 4CDB87AA
     Track not present in AccurateRip database
     Copy OK
Track  7
     Filename E:\Muzika\Michel Petrucciani Trio\Estate\Estate\07. Samba Des Prophetes.wav
     Peak level 67.7 %
     Track quality 100.0 %
     Test CRC BDEFAE93
     Copy CRC BDEFAE93
     Track not present in AccurateRip database
     Copy OK
None of the tracks are present in the AccurateRip database
No errors occurred
End of status report
 
 
Содержание индексной карты (.CUE)
REM GENRE Jazz
REM DATE 1982
REM DISCID 5707E907
REM COMMENT "ExactAudioCopy v0.99pb4"
PERFORMER "Michel Petrucciani Trio"
TITLE "Estate"
FILE "01. Pasolini.flac" WAVE
  TRACK 01 AUDIO
    TITLE "Pasolini"
    PERFORMER "Michel Petrucciani Trio"
    PREGAP 00:00:33
    INDEX 01 00:00:00
FILE "02. Very Early.flac" WAVE
  TRACK 02 AUDIO
    TITLE "Very Early"
    PERFORMER "Michel Petrucciani Trio"
    INDEX 01 00:00:00
FILE "03. Estate.flac" WAVE
  TRACK 03 AUDIO
    TITLE "Estate"
    PERFORMER "Michel Petrucciani Trio"
    INDEX 01 00:00:00
FILE "04. Maybe Yes.flac" WAVE
  TRACK 04 AUDIO
    TITLE "Maybe Yes"
    PERFORMER "Michel Petrucciani Trio"
    INDEX 01 00:00:00
FILE "05. I Just Say Hello.flac" WAVE
  TRACK 05 AUDIO
    TITLE "I Just Say Hello"
    PERFORMER "Michel Petrucciani Trio"
    INDEX 01 00:00:00
FILE "06. Tone Poem.flac" WAVE
  TRACK 06 AUDIO
    TITLE "Tone Poem"
    PERFORMER "Michel Petrucciani Trio"
    INDEX 01 00:00:00
FILE "07. Samba Des Prophetes.flac" WAVE
  TRACK 07 AUDIO
    TITLE "Samba Des Prophetes"
    PERFORMER "Michel Petrucciani Trio"
    INDEX 01 00:00:00
 
 
CUETools log
[CUETools log; Date: 30.06.2012 7:23:21; Version: 2.0.9]
Pregap length 00:00:33.
[CTDB TOCID: YcM6iONp2ioTAyu6X0.aGNboOX4-] disk not present in database.
[AccurateRip ID: 0009ca35-003a361a-5707e907] found.
Track   [ CRC    ] Status
 01     [ed55a138] (2/4) Accurately ripped
 02     [263e8269] (2/4) Accurately ripped
 03     [4679d828] (2/4) Accurately ripped
 04     [41a7d1db] (2/4) Accurately ripped
 05     [8968fce3] (2/4) Accurately ripped
 06     [b485db37] (2/4) Accurately ripped
 07     [2bc4b3ae] (2/4) Accurately ripped
Offsetted by -1351:
 01     [fed17e0b] (2/4) No match but offset
 02     [52b0aeb4] (2/4) No match but offset
 03     [9a21d61d] (2/4) No match but offset
 04     [3603574a] (2/4) No match but offset
 05     [298e1e5f] (2/4) No match but offset
 06     [f738436b] (2/4) No match but offset
 07     [a1ada230] (2/4) No match but offset
Track Peak [ CRC32  ] [W/O NULL] [  LOG   ]
 --   95,5 [CEEA1F4E] [8A37110E]
 01   90,3 [F853E72A] [61B8A2DC]  W/O NULL
 02   95,5 [D58AB1F3] [267FD82D]  W/O NULL
 03   43,9 [7BC3618D] [D60C76A5]  W/O NULL
 04   63,4 [E30E7054] [1C279A77]  W/O NULL
 05   60,1 [0AC13640] [59833E9B]  W/O NULL
 06   75,2 [906F82B9] [4CDB87AA]  W/O NULL
 07   67,7 [0F88E568] [BDEFAE93]  W/O NULL
 
 
1982 • Michel Petrucciani Trio - Estate {SACD}
Год издания: 2005
Издатель (лейбл): IRD
Номер по каталогу: TDM 001-2
Тип рипа: tracks+.cue
Продолжительность: 34:03
Rip by Sarchiapone
Наличие сканов в содержимом раздачи: да
Треклист:
01. Pasolini (5:31)
02. Very Early (4:58)
03. Estate (5:48)
04. Maybe Yes (3:48)
05. I Just Say Hello (6:21)
06. Tone Poem (4:13)
07. Samba Des Prophetes (3:25)
Personnel:
Michel Petrucciani - p
Furio Di Castri - b
Aldo Romano - d
Rec.: Forum Rec. Studio, Rome, Italy, March 29 & 30, April 16 & May 5, 1982.
 
 
 
Лог создания рипа
Exact Audio Copy V1.0 beta 2 from 29. April 2011
EAC extraction logfile from 26. March 2012, 20:29
Michel Petrucciani / Estate
Used drive  : PLEXTOR CD-R   PREMIUM2   Adapter: 1  ID: 1
Read mode               : Secure
Utilize accurate stream : Yes
Defeat audio cache      : Yes
Make use of C2 pointers : No
Read offset correction                      : 30
Overread into Lead-In and Lead-Out          : No
Fill up missing offset samples with silence : Yes
Delete leading and trailing silent blocks   : No
Null samples used in CRC calculations       : Yes
Used interface                              : Installed external ASPI interface
Gap handling                                : Appended to previous track
Used output format              : User Defined Encoder
Selected bitrate                : 256 kBit/s
Quality                         : High
Add ID3 tag                     : No
Command line compressor         : C:\Programmi\eac-1.00\Flac\flac.exe
Additional command line options : -8 -V -T "ARTIST=%artist%" -T "TITLE=%title%" -T "ALBUM=%albumtitle%" -T "DATE=%year%" -T "TRACKNUMBER=%tracknr%" %source%
TOC of the extracted CD
     Track |   Start  |  Length  | Start sector | End sector
    ---------------------------------------------------------
        1  |  0:00.00 |  5:30.51 |         0    |    24800
        2  |  5:30.51 |  4:57.57 |     24801    |    47132
        3  | 10:28.33 |  5:48.00 |     47133    |    73232
        4  | 16:16.33 |  3:47.66 |     73233    |    90323
        5  | 20:04.24 |  6:21.00 |     90324    |   118898
        6  | 26:25.24 |  4:13.00 |    118899    |   137873
        7  | 30:38.24 |  3:24.51 |    137874    |   153224
Track  1
     Filename D:\My Rip\01 - Pasolini.wav
     Pre-gap length  0:00:02.00
     Peak level 99.8 %
     Extraction speed 7.8 X
     Track quality 99.9 %
     Test CRC 3BFF2014
     Copy CRC 3BFF2014
     Track not present in AccurateRip database
     Copy OK
Track  2
     Filename D:\My Rip\02 - Very Early.wav
     Pre-gap length  0:00:01.46
     Peak level 99.8 %
     Extraction speed 9.6 X
     Track quality 100.0 %
     Test CRC 30DF46C4
     Copy CRC 30DF46C4
     Track not present in AccurateRip database
     Copy OK
Track  3
     Filename D:\My Rip\03 - Estate.wav
     Pre-gap length  0:00:02.40
     Peak level 60.3 %
     Extraction speed 10.8 X
     Track quality 100.0 %
     Test CRC 01571152
     Copy CRC 01571152
     Track not present in AccurateRip database
     Copy OK
Track  4
     Filename D:\My Rip\04 - Maybe Yes.wav
     Pre-gap length  0:00:02.58
     Peak level 92.4 %
     Extraction speed 11.4 X
     Track quality 100.0 %
     Test CRC EF52A5A8
     Copy CRC EF52A5A8
     Track not present in AccurateRip database
     Copy OK
Track  5
     Filename D:\My Rip\05 - I Just Say Hello.wav
     Pre-gap length  0:00:02.49
     Peak level 86.3 %
     Extraction speed 12.5 X
     Track quality 100.0 %
     Test CRC 6C361CDC
     Copy CRC 6C361CDC
     Track not present in AccurateRip database
     Copy OK
Track  6
     Filename D:\My Rip\06 - Tone Poem.wav
     Pre-gap length  0:00:01.58
     Peak level 99.8 %
     Extraction speed 12.8 X
     Track quality 100.0 %
     Test CRC 43030E24
     Copy CRC 43030E24
     Track not present in AccurateRip database
     Copy OK
Track  7
     Filename D:\My Rip\07 - Samba Des Prophetes.wav
     Pre-gap length  0:00:02.58
     Peak level 99.8 %
     Extraction speed 11.3 X
     Track quality 100.0 %
     Test CRC CB11DECA
     Copy CRC CB11DECA
     Track not present in AccurateRip database
     Copy OK
None of the tracks are present in the AccurateRip database
No errors occurred
End of status report
==== Log checksum 01627F2A5A0D4401021B3D0649D12A0C869091EA4E6AA2C33EAC39DE837661E4 ====
 
 
Содержание индексной карты (.CUE)
REM GENRE Jazz
REM DATE 1982
REM DISCID 5607FB07
REM COMMENT "ExactAudioCopy v1.0b2"
PERFORMER "Michel Petrucciani Trio"
TITLE "Estate"
FILE "01. Pasolini.flac" WAVE
  TRACK 01 AUDIO
    TITLE "Pasolini"
    PERFORMER "Michel Petrucciani"
    INDEX 01 00:00:00
  TRACK 02 AUDIO
    TITLE "Very Early"
    PERFORMER "Michel Petrucciani"
    INDEX 00 05:29:05
FILE "02. Very Early.flac" WAVE
    INDEX 01 00:00:00
  TRACK 03 AUDIO
    TITLE "Estate"
    PERFORMER "Michel Petrucciani"
    INDEX 00 04:55:17
FILE "03. Estate.flac" WAVE
    INDEX 01 00:00:00
  TRACK 04 AUDIO
    TITLE "Maybe Yes"
    PERFORMER "Michel Petrucciani"
    INDEX 00 05:45:17
FILE "04. Maybe Yes.flac" WAVE
    INDEX 01 00:00:00
  TRACK 05 AUDIO
    TITLE "I Just Say Hello"
    PERFORMER "Michel Petrucciani"
    INDEX 00 03:45:17
FILE "05. I Just Say Hello.flac" WAVE
    INDEX 01 00:00:00
  TRACK 06 AUDIO
    TITLE "Tone Poem"
    PERFORMER "Michel Petrucciani"
    INDEX 00 06:19:17
FILE "06. Tone Poem.flac" WAVE
    INDEX 01 00:00:00
  TRACK 07 AUDIO
    TITLE "Samba Des Prophetes"
    PERFORMER "Michel Petrucciani"
    INDEX 00 04:10:17
FILE "07. Samba Des Prophetes.flac" WAVE
    INDEX 01 00:00:00
 
 
CUETools log
[CUETools log; Date: 30.06.2012 7:22:27; Version: 2.0.9]
[CTDB TOCID: CwlSr46rCPKVJyiwwfYHAOobbQQ-] disk not present in database.
[AccurateRip ID: 0009d971-003a977a-5607fb07] found.
Track   [ CRC    ] Status
 01     [de213548] (0/0) No match
 02     [94377ece] (0/0) No match
 03     [77659d93] (0/0) No match
 04     [2eef0271] (0/0) No match
 05     [b91d897a] (0/0) No match
 06     [f352e9c3] (0/0) No match
 07     [4ad9a9e2] (0/0) No match
Track Peak [ CRC32  ] [W/O NULL] [  LOG   ]
 --   99,8 [3E92CA06] [CEE17864]
 01   99,8 [3BFF2014] [33215375]   CRC32
 02   99,8 [30DF46C4] [75650476]   CRC32
 03   60,3 [01571152] [4CC9520F]   CRC32
 04   92,4 [EF52A5A8] [27504E87]   CRC32
 05   86,3 [6C361CDC] [E0D841EC]   CRC32
 06   99,8 [43030E24] [B81CFB5B]   CRC32
 07   99,8 [CB11DECA] [E1DE070C]   CRC32
 
 
1982 • Lee Konitz / Michel Petrucciani - Toot Sweet
Год издания: 2001
Издатель (лейбл): Universal/OWL
Номер по каталогу: 013 432 2
Тип рипа: tracks+.cue
Продолжительность: 48:21
Rip by Oceandrop
Наличие сканов в содержимом раздачи: да
Треклист:
01. I Hear A Rhapsody (4:44)
02. To Erlinda (5:03)
03. Round About Midnight (16:00)
04. Lover Man (15:35)
05. Ode (4:47)
06. Lovelee (2:12)
Personnel:
Lee Konitz - as
Michel Petrucciani - p
Rec.: Centre Musical Bosendorfer, Paris, May 25, 1982.
 
 
 
Лог создания рипа
Exact Audio Copy V0.99 prebeta 5 from 4. May 2009
EAC extraction logfile from 22. January 2010, 19:38
Michel Petrucciani & Lee Konitz / Toot Sweet
Used drive  : ASUS    CRW-5232AS   Adapter: 0  ID: 0
Read mode               : Secure
Utilize accurate stream : Yes
Defeat audio cache      : Yes
Make use of C2 pointers : No
Read offset correction                      : 6
Overread into Lead-In and Lead-Out          : No
Fill up missing offset samples with silence : Yes
Delete leading and trailing silent blocks   : No
Null samples used in CRC calculations       : Yes
Used interface                              : Native Win32 interface for Win NT & 2000
Gap handling                                : Appended to previous track
Used output format              : User Defined Encoder
Selected bitrate                : 1024 kBit/s
Quality                         : High
Add ID3 tag                     : No
Command line compressor         : C:\Program Files\Exact Audio Copy\FLAC\FLAC.EXE
Additional command line options : -6 -V -T "ARTIST=%a" -T "TITLE=%t" -T "ALBUM=%g" -T "DATE=%y" -T "TRACKNUMBER=%n" -T "GENRE=%m" -T "COMMENT=%e" %s -o %d
TOC of the extracted CD
     Track |   Start  |  Length  | Start sector | End sector
    ---------------------------------------------------------
        1  |  0:00.00 |  4:43.70 |         0    |    21294
        2  |  4:43.70 |  5:03.07 |     21295    |    44026
        3  |  9:47.02 | 16:00.33 |     44027    |   116059
        4  | 25:47.35 | 15:35.02 |    116060    |   186186
        5  | 41:22.37 |  4:46.70 |    186187    |   207706
        6  | 46:09.32 |  2:11.48 |    207707    |   217579
Track  1
     Filename C:\flacs\Michel Petrucciani & Lee Konitz - Toot Sweet\01. I Hear a Rhapsody.wav
     Pre-gap length  0:00:02.00
     Peak level 100.0 %
     Track quality 99.9 %
     Test CRC 41B43D3C
     Copy CRC 41B43D3C
     Accurately ripped (confidence 5)  [4E0AD209]
     Copy OK
Track  2
     Filename C:\flacs\Michel Petrucciani & Lee Konitz - Toot Sweet\02. To Erlinda.wav
     Pre-gap length  0:00:04.43
     Peak level 89.1 %
     Track quality 100.0 %
     Test CRC 474F472B
     Copy CRC 474F472B
     Accurately ripped (confidence 5)  [ABB3C24B]
     Copy OK
Track  3
     Filename C:\flacs\Michel Petrucciani & Lee Konitz - Toot Sweet\03. Round About Midnight.wav
     Pre-gap length  0:00:05.32
     Peak level 100.0 %
     Track quality 100.0 %
     Test CRC 7CA236C6
     Copy CRC 7CA236C6
     Accurately ripped (confidence 5)  [838D2847]
     Copy OK
Track  4
     Filename C:\flacs\Michel Petrucciani & Lee Konitz - Toot Sweet\04. Lover Man.wav
     Pre-gap length  0:00:05.35
     Peak level 100.0 %
     Track quality 100.0 %
     Test CRC 9015A8EC
     Copy CRC 9015A8EC
     Accurately ripped (confidence 5)  [F8788358]
     Copy OK
Track  5
     Filename C:\flacs\Michel Petrucciani & Lee Konitz - Toot Sweet\05. Ode.wav
     Pre-gap length  0:00:05.60
     Peak level 84.1 %
     Track quality 100.0 %
     Test CRC 6E831D3A
     Copy CRC 6E831D3A
     Accurately ripped (confidence 5)  [FF84CF5C]
     Copy OK
Track  6
     Filename C:\flacs\Michel Petrucciani & Lee Konitz - Toot Sweet\06. Lovelee.wav
     Pre-gap length  0:00:01.67
     Peak level 100.0 %
     Track quality 100.0 %
     Test CRC CD3FBA47
     Copy CRC CD3FBA47
     Accurately ripped (confidence 5)  [0618E477]
     Copy OK
All tracks accurately ripped
No errors occurred
End of status report
 
 
Содержание индексной карты (.CUE)
REM GENRE Jazz
REM DATE 1982
REM DISCID 5D0B5506
REM COMMENT "ExactAudioCopy v0.99pb5"
PERFORMER "Lee Konitz / Michel Petrucciani"
TITLE "Toot Sweet"
FILE "01. I Hear A Rhapsody.flac" WAVE
  TRACK 01 AUDIO
    INDEX 01 00:00:00
  TRACK 02 AUDIO
    INDEX 00 04:39:27
FILE "02. To Erlinda.flac" WAVE
    INDEX 01 00:00:00
  TRACK 03 AUDIO
    INDEX 00 04:57:50
FILE "03. Round About Midnight.flac" WAVE
    INDEX 01 00:00:00
  TRACK 04 AUDIO
    INDEX 00 15:54:73
FILE "04. Lover Man.flac" WAVE
    INDEX 01 00:00:00
  TRACK 05 AUDIO
    INDEX 00 15:29:17
FILE "05. Ode.flac" WAVE
    INDEX 01 00:00:00
  TRACK 06 AUDIO
    INDEX 00 04:45:03
FILE "06. Lovelee.flac" WAVE
    INDEX 01 00:00:00
 
 
CUETools log
[CUETools log; Date: 12.10.2011 17:34:44; Version: 2.0.9]
[CTDB TOCID: ghrVgXmZq5wzxIa3vrlWJzI0nlE-] found.
        [ CTDBID ] Status
        [bdeea121] (10/10) Accurately ripped
[AccurateRip ID: 000c1918-004235cd-5d0b5506] found.
Track   [ CRC    ] Status
 01     [4e0ad209] (07/14) Accurately ripped
 02     [abb3c24b] (07/14) Accurately ripped
 03     [838d2847] (07/14) Accurately ripped
 04     [f8788358] (07/14) Accurately ripped
 05     [ff84cf5c] (07/14) Accurately ripped
 06     [0618e477] (07/14) Accurately ripped
Offsetted by -664:
 01     [4f28eb51] (04/14) Accurately ripped
 02     [d7669b53] (04/14) Accurately ripped
 03     [264cb6cf] (04/14) Accurately ripped
 04     [f1d8e488] (04/14) Accurately ripped
 05     [989dd1d4] (04/14) Accurately ripped
 06     [2f8770ef] (04/14) Accurately ripped
Track Peak [ CRC32  ] [W/O NULL] [  LOG   ]
 --  100,0 [FFE090A3] [51037754]
 01  100,0 [41B43D3C] [F4ED44B9]   CRC32
 02   89,1 [474F472B] [E92A0485]   CRC32
 03  100,0 [7CA236C6] [B2C55BAC]   CRC32
 04  100,0 [9015A8EC] [34A155B4]   CRC32
 05   84,1 [6E831D3A] [BDF74578]   CRC32
 06  100,0 [CD3FBA47] [271FFF59]   CRC32
 
 
1982 • Michel Petrucciani - Oracle's Destiny
Год издания: 2006
Издатель (лейбл): OWL
Bar code: 0602498398982
Тип рипа: tracks+.cue
Продолжительность: 41:54
Rip by Sarchiapone
Наличие сканов в содержимом раздачи: да
Треклист:
01. Oracle's Destiny (9:57)
02. Big Sur / Big On (4:36)
03. Amalgame (7:23)
04. It's What I Am Doing When I Miss You (9:50)
05. Mike Pee (10:08)
Michel Petrucciani - piano solo
Rec.: Salle Adyar, Paris, October 18, 1982.
 
 
 
Лог создания рипа
Exact Audio Copy V0.99 prebeta 4 from 23. January 2008
EAC extraction logfile from 8. April 2008, 18:08
Michel Petrucciani / Oracle's Destiny
Used drive  : PLEXTOR CD-R   PREMIUM2   Adapter: 1  ID: 1
Read mode               : Secure
Utilize accurate stream : Yes
Defeat audio cache      : Yes
Make use of C2 pointers : No
Read offset correction                      : 30
Overread into Lead-In and Lead-Out          : No
Fill up missing offset samples with silence : Yes
Delete leading and trailing silent blocks   : No
Null samples used in CRC calculations       : Yes
Used interface                              : Installed external ASPI interface
Gap handling                                : Appended to previous track
Used output format              : User Defined Encoder
Selected bitrate                : 32 kBit/s
Quality                         : High
Add ID3 tag                     : No
Command line compressor         : C:\Programmi\FLAC\flac.exe
Additional command line options : -8 -V -T "ARTIST=%a" -T "TITLE=%t" -T "ALBUM=%g" -T "DATE=%y" -T "TRACKNUMBER=%n" -T "GENRE=%m" -T "COMMENT=EAC FLAC -8" %s
TOC of the extracted CD
     Track |   Start  |  Length  | Start sector | End sector
    ---------------------------------------------------------
        1  |  0:00.00 |  9:57.35 |         0    |    44809
        2  |  9:57.35 |  4:35.71 |     44810    |    65505
        3  | 14:33.31 |  7:23.04 |     65506    |    98734
        4  | 21:56.35 |  9:50.01 |     98735    |   142985
        5  | 31:46.36 | 10:07.53 |    142986    |   188563
Track  1
     Filename C:\My Rip\01 - Oracle's Destiny.wav
     Pre-gap length  0:00:02.00
     Peak level 99.9 %
     Track quality 100.0 %
     Test CRC 1364B035
     Copy CRC 1364B035
     Track not present in AccurateRip database
     Copy OK
Track  2
     Filename C:\My Rip\02 - Big Sur-Big On.wav
     Pre-gap length  0:00:01.73
     Peak level 75.0 %
     Track quality 99.9 %
     Test CRC F1F0E589
     Copy CRC F1F0E589
     Track not present in AccurateRip database
     Copy OK
Track  3
     Filename C:\My Rip\03 - Amalgame.wav
     Pre-gap length  0:00:01.13
     Peak level 83.3 %
     Track quality 100.0 %
     Test CRC 148F14D3
     Copy CRC 148F14D3
     Track not present in AccurateRip database
     Copy OK
Track  4
     Filename C:\My Rip\04 - It's What I Am Doing When I Miss You.wav
     Pre-gap length  0:00:01.49
     Peak level 88.1 %
     Track quality 100.0 %
     Test CRC AC720B92
     Copy CRC AC720B92
     Track not present in AccurateRip database
     Copy OK
Track  5
     Filename C:\My Rip\05 - Mike Pee.wav
     Pre-gap length  0:00:02.30
     Peak level 86.3 %
     Track quality 100.0 %
     Test CRC 487885DA
     Copy CRC 487885DA
     Track not present in AccurateRip database
     Copy OK
None of the tracks are present in the AccurateRip database
No errors occurred
End of status report
 
 
Содержание индексной карты (.CUE)
REM GENRE Jazz
REM DATE 1982
REM DISCID 4C09D205
REM COMMENT "ExactAudioCopy v0.99pb4"
PERFORMER "Michel Petrucciani"
TITLE "Oracle's Destiny"
FILE "01. Oracle's Destiny.flac" WAVE
  TRACK 01 AUDIO
    TITLE "Oracle's Destiny"
    PERFORMER "Michel Petrucciani"
    INDEX 01 00:00:00
  TRACK 02 AUDIO
    TITLE "Big Sur / Big On"
    PERFORMER "Michel Petrucciani"
    INDEX 00 09:55:55
FILE "02. Big Sur - Big On.flac" WAVE
    INDEX 01 00:00:00
  TRACK 03 AUDIO
    TITLE "Amalgame"
    PERFORMER "Michel Petrucciani"
    INDEX 00 04:34:61
FILE "03. Amalgame.flac" WAVE
    INDEX 01 00:00:00
  TRACK 04 AUDIO
    TITLE "It's What I Am Doing When I Miss You"
    PERFORMER "Michel Petrucciani"
    INDEX 00 07:21:42
FILE "04. It's What I Am Doing When I Miss You.flac" WAVE
    INDEX 01 00:00:00
  TRACK 05 AUDIO
    TITLE "Mike Pee"
    PERFORMER "Michel Petrucciani"
    INDEX 00 09:47:53
FILE "05. Mike Pee.flac" WAVE
    INDEX 01 00:00:00
 
 
CUETools log
[CUETools log; Date: 29.06.2012 11:33:22; Version: 2.0.9]
[CTDB TOCID: fCYggivXz0jPp2.9wE_DfUjUEq8-] found.
        [ CTDBID ] Status
        [3843b0f3] (3/3) Accurately ripped
[AccurateRip ID: 00083fb9-002690a1-4c09d205] found.
Track   [ CRC    ] Status
 01     [5318ff9d] (2/2) Accurately ripped
 02     [86d5f2f7] (2/2) Accurately ripped
 03     [9847d2be] (2/2) Accurately ripped
 04     [fccfe6b7] (2/2) Accurately ripped
 05     [929cbd1e] (2/2) Accurately ripped
Track Peak [ CRC32  ] [W/O NULL]
 --   99,9 [494D2B4C] [D2E5EBC0]
 01   99,9 [1364B035] [9E76DC12]
 02   75,0 [F1F0E589] [E1237684]
 03   83,3 [148F14D3] [E92249AC]
 04   88,1 [AC720B92] [7BD33CAD]
 05   86,3 [487885DA] [45A1386C]
 
 
1984 • Michel Petrucciani - 100 Hearts
Год издания: 2002
Издатель (лейбл): Blue Note
Номер по каталогу: 7243 5 38329 2 6
Тип рипа: image+.cue
Продолжительность: 53:47
Rip by Oceandrop
Наличие сканов в содержимом раздачи: да
Треклист:
01. Turn Around (9:20)
02. Three Forgotten Magic Words (5:26)
03. Silence (5:58)
04. St. Thomas (6:42)
05. Pot Pouri (medley) (14:22)
___a. Someday My Prince Will Come
___b. All The Things You Are
___c. A Child Is Born
___d. Very Early
06. 100 Hearts (12:00)
Michel Petrucciani - piano solo
Rec.: live at Kool Jazz Festival, June 1983.
 
 
 
Лог создания рипа
Exact Audio Copy V0.99 prebeta 5 from 4. May 2009
EAC extraction logfile from 8. May 2010, 11:17
Michel Petrucciani / 100 Hearts
Used drive  : ASUS    DRW-1608P3S   Adapter: 0  ID: 1
Read mode               : Secure
Utilize accurate stream : Yes
Defeat audio cache      : Yes
Make use of C2 pointers : No
Read offset correction                      : 48
Overread into Lead-In and Lead-Out          : No
Fill up missing offset samples with silence : Yes
Delete leading and trailing silent blocks   : No
Null samples used in CRC calculations       : Yes
Used interface                              : Native Win32 interface for Win NT & 2000
Used output format : Internal WAV Routines
Sample format      : 44.100 Hz; 16 Bit; Stereo
TOC of the extracted CD
     Track |   Start  |  Length  | Start sector | End sector
    ---------------------------------------------------------
        1  |  0:00.00 |  9:20.00 |         0    |    41999
        2  |  9:20.00 |  5:26.12 |     42000    |    66461
        3  | 14:46.12 |  5:57.45 |     66462    |    93281
        4  | 20:43.57 |  6:41.48 |     93282    |   123404
        5  | 27:25.30 | 14:21.45 |    123405    |   188024
        6  | 41:47.00 | 11:59.67 |    188025    |   242016
Range status and errors
Selected range
     Filename H:\WORK - Petrucciani\Michel Petrucciani - 100 Hearts\Michel Petrucciani - 100 Hearts.wav
     Peak level 98.8 %
     Range quality 100.0 %
     Test CRC 03D30EB1
     Copy CRC 03D30EB1
     Copy OK
No errors occurred
AccurateRip summary
Track  1  accurately ripped (confidence 6)  [9C70F6E7]
Track  2  accurately ripped (confidence 6)  [684957A2]
Track  3  accurately ripped (confidence 6)  [4DB87BE1]
Track  4  accurately ripped (confidence 6)  [B83C5699]
Track  5  accurately ripped (confidence 6)  [E8B919EB]
Track  6  accurately ripped (confidence 6)  [BF815FA3]
All tracks accurately ripped
End of status report
 
 
Содержание индексной карты (.CUE)
REM GENRE Jazz
REM DATE 1984
REM DISCID 550C9A06
REM COMMENT "ExactAudioCopy v0.99pb5"
PERFORMER "Michel Petrucciani"
TITLE "100 Hearts"
FILE "Michel Petrucciani - 100 Hearts.flac" WAVE
  TRACK 01 AUDIO
    TITLE "Turn Around"
    PERFORMER "Michel Petrucciani"
    INDEX 01 00:00:00
  TRACK 02 AUDIO
    TITLE "Three Forgotten Magic Words"
    PERFORMER "Michel Petrucciani"
    INDEX 00 09:18:08
    INDEX 01 09:20:00
  TRACK 03 AUDIO
    TITLE "Silence"
    PERFORMER "Michel Petrucciani"
    INDEX 00 14:43:53
    INDEX 01 14:46:12
  TRACK 04 AUDIO
    TITLE "St. Thomas"
    PERFORMER "Michel Petrucciani"
    INDEX 00 20:42:18
    INDEX 01 20:43:57
  TRACK 05 AUDIO
    TITLE "Pot Pouri (medley)"
    PERFORMER "Michel Petrucciani"
    INDEX 00 27:22:26
    INDEX 01 27:25:30
  TRACK 06 AUDIO
    TITLE "100 Hearts"
    PERFORMER "Michel Petrucciani"
    INDEX 00 41:44:33
    INDEX 01 41:47:00
 
 
CUETools log
[CUETools log; Date: 30.06.2012 16:32:46; Version: 2.0.9]
[CTDB TOCID: 7LaWWvDUluKNKXZCVYXtIxM_rEs-] found.
        [ CTDBID ] Status
        [c1ed3b39] (18/18) Accurately ripped
[AccurateRip ID: 000b85f7-003e7f41-550c9a06] found.
Track   [ CRC    ] Status
 01     [9c70f6e7] (09/18) Accurately ripped
 02     [684957a2] (09/18) Accurately ripped
 03     [4db87be1] (09/18) Accurately ripped
 04     [b83c5699] (09/18) Accurately ripped
 05     [e8b919eb] (09/18) Accurately ripped
 06     [bf815fa3] (09/18) Accurately ripped
Offsetted by 1458:
 01     [6767eaa8] (07/18) Accurately ripped
 02     [c6d3f01f] (07/18) Accurately ripped
 03     [fd75c48c] (07/18) Accurately ripped
 04     [131e6053] (07/18) Accurately ripped
 05     [262ef316] (07/18) Accurately ripped
 06     [9252692b] (07/18) Accurately ripped
Track Peak [ CRC32  ] [W/O NULL]
 --   98,8 [03D30EB1] [F4971F62]
 01   98,8 [B9D19129] [D75B1D4D]
 02   98,8 [C4B749D8] [7A6E393D]
 03   88,0 [D06F3CA2] [731551E1]
 04   98,8 [F281ECF6] [CD081CC0]
 05   98,8 [FDA15F06] [A773553D]
 06   98,8 [D8522BE7] [AE375BDA]
 
 
1984 • Michel Petrucciani - Note 'n Notes
Год издания: 1984
Издатель (лейбл): OWL
Номер по каталогу: R2 79236
Тип рипа: image+.cue
Продолжительность: 43:52
Rip by ffsf
Наличие сканов в содержимом раздачи: да
Треклист:
01. The Round Boy's Dance (8:09)
02. Prelude To A Kiss (15:29)
03. Eugenia (9:20)
04. My Funny Valentine (10:55)
Michel Petrucciani - piano solo
On track 1: piano + piano in overdub
On track 3: piano + two tracks of overdubing piano
Rec.: Village Studio, October 5, 1984.
 
 
 
Лог создания рипа
Exact Audio Copy V0.99 prebeta 4 from 23. January 2008
EAC extraction logfile from 22. August 2009, 13:18
Michel Petrucciani / Note N'notes
Used drive  : MATSHITADVD-ROM SR-8588   Adapter: 1  ID: 1
Read mode               : Secure
Utilize accurate stream : Yes
Defeat audio cache      : Yes
Make use of C2 pointers : No
Read offset correction                      : 103
Overread into Lead-In and Lead-Out          : No
Fill up missing offset samples with silence : Yes
Delete leading and trailing silent blocks   : No
Null samples used in CRC calculations       : Yes
Used interface                              : Installed external ASPI interface
Used output format : Internal WAV Routines
Sample format      : 44.100 Hz; 16 Bit; Stereo
TOC of the extracted CD
     Track |   Start  |  Length  | Start sector | End sector
    ---------------------------------------------------------
        1  |  0:00.33 |  8:08.57 |        33    |    36689
        2  |  8:09.15 | 15:29.18 |     36690    |   106382
        3  | 23:38.33 |  9:19.40 |    106383    |   148347
        4  | 32:57.73 | 10:54.40 |    148348    |   197437
Range status and errors
Selected range
     Filename C:\EAC\Michel Petrucciani - Note N'notes.wav
     Peak level 100.0 %
     Range quality 100.0 %
     Test CRC C5B89A5C
     Copy CRC C5B89A5C
     Copy OK
No errors occurred
AccurateRip summary
Track  1  not present in database
Track  2  not present in database
Track  3  not present in database
Track  4  not present in database
None of the tracks are present in the AccurateRip database
End of status report
 
 
Содержание индексной карты (.CUE)
REM GENRE Jazz
REM DATE 1984
REM DISCID 310A4804
REM COMMENT "ExactAudioCopy v0.99pb4"
CATALOG 0000000000000
PERFORMER "Michel Petrucciani"
TITLE "Note 'n Notes"
FILE "Michel Petrucciani - Note 'n Notes.flac" WAVE
  TRACK 01 AUDIO
    TITLE "The Round Boy's Dance"
    PERFORMER "Michel Petrucciani"
    FLAGS PRE
    INDEX 00 00:00:00
    INDEX 01 00:00:33
  TRACK 02 AUDIO
    TITLE "Prelude To A Kiss"
    PERFORMER "Michel Petrucciani"
    FLAGS PRE
    INDEX 01 08:09:15
  TRACK 03 AUDIO
    TITLE "Eugenia"
    PERFORMER "Michel Petrucciani"
    FLAGS PRE
    INDEX 00 23:38:32
    INDEX 01 23:38:33
  TRACK 04 AUDIO
    TITLE "My Funny Valentine"
    PERFORMER "Michel Petrucciani"
    FLAGS PRE
    INDEX 01 32:57:73
 
 
CUETools log
[CUETools log; Date: 29.06.2012 19:27:16; Version: 2.0.9]
Pregap length 00:00:33.
[CTDB TOCID: zoBoL.h9Qm4xWn_.AQoTbn4tQvY-] disk not present in database.
[AccurateRip ID: 000775bc-001e1b98-310a4804] found.
Track   [ CRC    ] Status
 01     [54b57791] (0/2) No match
 02     [3161fc6d] (0/2) No match
 03     [1c89409a] (0/2) No match
 04     [714e1244] (0/2) No match
Offsetted by -1739:
 01     [bf28ffc3] (2/2) Accurately ripped
 02     [074b69ec] (2/2) Accurately ripped
 03     [6d431a25] (2/2) Accurately ripped
 04     [ccc3e8b5] (2/2) Accurately ripped
Track Peak [ CRC32  ] [W/O NULL] [  LOG   ]
 --  100,0 [C5B89A5C] [F8CAC469]   CRC32
 01  100,0 [31C947A3] [A30D3D24]
 02  100,0 [F37CD337] [DB5A9AB9]
 03  100,0 [65F7C373] [EEE2F21D]
 04   88,7 [351DBBDB] [3FD82EAA]
 
 
1984 • Michel Petrucciani - Note 'n Notes {Remastered}
Год издания: 2007
Издатель (лейбл): Universal/OWL
Номер по каталогу: 984 755 5
Тип рипа: tracks+.cue
Продолжительность: 43:51
Rip by Sarchiapone
Наличие сканов в содержимом раздачи: да
Треклист:
01. The Round Boy's Dance (8:09)
02. Prelude To A Kiss (15:29)
03. Eugenia (9:20)
04. My Funny Valentine (10:53)
Michel Petrucciani - piano solo
On track 1: piano + piano in overdub
On track 3: piano + two tracks of overdubing piano
Rec.: Village Studio, October 5, 1984.
Remastered for Reissue at Universal Music Studio, France.
 
 
 
Лог создания рипа
Exact Audio Copy V1.0 beta 2 from 29. April 2011
EAC extraction logfile from 3. April 2012, 17:44
Michel Petrucciani / Note 'n Notes
Used drive  : PLEXTOR CD-R   PREMIUM2   Adapter: 1  ID: 1
Read mode               : Secure
Utilize accurate stream : Yes
Defeat audio cache      : Yes
Make use of C2 pointers : No
Read offset correction                      : 30
Overread into Lead-In and Lead-Out          : No
Fill up missing offset samples with silence : Yes
Delete leading and trailing silent blocks   : No
Null samples used in CRC calculations       : Yes
Used interface                              : Installed external ASPI interface
Gap handling                                : Appended to previous track
Used output format              : User Defined Encoder
Selected bitrate                : 256 kBit/s
Quality                         : High
Add ID3 tag                     : No
Command line compressor         : C:\Programmi\eac-1.00\Flac\flac.exe
Additional command line options : -8 -V -T "ARTIST=%artist%" -T "TITLE=%title%" -T "ALBUM=%albumtitle%" -T "DATE=%year%" -T "TRACKNUMBER=%tracknr%" %source%
TOC of the extracted CD
     Track |   Start  |  Length  | Start sector | End sector
    ---------------------------------------------------------
        1  |  0:00.00 |  8:09.04 |         0    |    36678
        2  |  8:09.04 | 15:28.50 |     36679    |   106328
        3  | 23:37.54 |  9:19.65 |    106329    |   148318
        4  | 32:57.44 | 10:53.15 |    148319    |   197308
Track  1
     Filename D:\My Rip\01 - The Round Boys Dance.wav
     Pre-gap length  0:00:02.00
     Peak level 99.6 %
     Extraction speed 8.4 X
     Track quality 99.9 %
     Test CRC BFB69119
     Copy CRC BFB69119
     Track not present in AccurateRip database
     Copy OK
Track  2
     Filename D:\My Rip\02 - Prelude To A Kiss.wav
     Peak level 100.0 %
     Extraction speed 11.5 X
     Track quality 100.0 %
     Test CRC EAF916CF
     Copy CRC EAF916CF
     Track not present in AccurateRip database
     Copy OK
Track  3
     Filename D:\My Rip\03 - Eugenia.wav
     Pre-gap length  0:00:02.32
     Peak level 98.1 %
     Extraction speed 13.4 X
     Track quality 100.0 %
     Test CRC BA6F2632
     Copy CRC BA6F2632
     Track not present in AccurateRip database
     Copy OK
Track  4
     Filename D:\My Rip\04 - My Funny Valentine.wav
     Pre-gap length  0:00:02.14
     Peak level 89.6 %
     Extraction speed 14.2 X
     Track quality 100.0 %
     Test CRC 35801919
     Copy CRC 35801919
     Track not present in AccurateRip database
     Copy OK
None of the tracks are present in the AccurateRip database
No errors occurred
End of status report
==== Log checksum 407E240955EA222D5F6452235D415FE7A4ED01896D3E4DBAB703BFEC1F60FA6B ====
 
 
Содержание индексной карты (.CUE)
REM GENRE Jazz
REM DATE 1984
REM DISCID 390A4604
REM COMMENT "ExactAudioCopy v1.0b2"
PERFORMER "Michel Petrucciani"
TITLE "Note 'n Notes"
FILE "01. The Round Boy's Dance.flac" WAVE
  TRACK 01 AUDIO
    TITLE "The Round Boy's Dance"
    PERFORMER "Michel Petrucciani"
    INDEX 01 00:00:00
FILE "02. Prelude To A Kiss.flac" WAVE
  TRACK 02 AUDIO
    TITLE "Prelude To A Kiss"
    PERFORMER "Michel Petrucciani"
    INDEX 01 00:00:00
  TRACK 03 AUDIO
    TITLE "Eugenia"
    PERFORMER "Michel Petrucciani"
    INDEX 00 15:26:18
FILE "03. Eugenia.flac" WAVE
    INDEX 01 00:00:00
  TRACK 04 AUDIO
    TITLE "My Funny Valentine"
    PERFORMER "Michel Petrucciani"
    INDEX 00 09:17:51
FILE "04. My Funny Valentine.flac" WAVE
    INDEX 01 00:00:00
 
 
CUETools log
[CUETools log; Date: 29.06.2012 19:28:54; Version: 2.0.9]
[CTDB TOCID: QZBCWiSM5IJr52hSqe2gXt7ecII-] found.
        [ CTDBID ] Status
        [33f82a9b] (1/1) Accurately ripped
[AccurateRip ID: 000774bc-001e17c7-390a4604] found.
Track   [ CRC    ] Status
 01     [bd90662d] (0/0) No match
 02     [ce983731] (0/0) No match
 03     [16320507] (0/0) No match
 04     [6aebbdaf] (0/0) No match
Offsetted by -12:
 01     [9dac9719] (0/0) No match
 02     [0db1fb11] (0/0) No match
 03     [203793a3] (0/0) No match
 04     [36d55023] (0/0) No match
Track Peak [ CRC32  ] [W/O NULL]
 --  100,0 [B7A79BE8] [FA94C33B]
 01   99,6 [BFB69119] [B7006C0B]
 02  100,0 [EAF916CF] [A5A55432]
 03   98,1 [BA6F2632] [3965EE33]
 04   89,6 [35801919] [4F7D58EF]
 
 
1985 • Michel Petrucciani / Ron McClure - Cold Blues
Год издания: 1992
Издатель (лейбл): OWL
Номер по каталогу: R2 79244
Тип рипа: tracks+.cue
Продолжительность: 43:07
Rip by Sarchiapone
Наличие сканов в содержимом раздачи: да
Треклист:
01. Beautiful But Why? (8:39)
02. Autumn Leaves (5:46)
03. Something Like This (6:21)
04. There Will Never Be Another You (6:58)
05. I Just Say Hello! (8:47)
06. Cold Blues (6:36)
Personnel:
Michel Petrucciani - p
Ron McClure - b
Rec.: Classic Sound Productions Studio, New York, January 11, 1985.
 
 
 
Лог создания рипа
Exact Audio Copy V1.0 beta 2 from 29. April 2011
EAC extraction logfile from 26. March 2012, 0:41
Michel Petrucciani-Ron McClure / Cold Blues
Used drive  : PLEXTOR CD-R   PREMIUM2   Adapter: 1  ID: 1
Read mode               : Secure
Utilize accurate stream : Yes
Defeat audio cache      : Yes
Make use of C2 pointers : No
Read offset correction                      : 30
Overread into Lead-In and Lead-Out          : No
Fill up missing offset samples with silence : Yes
Delete leading and trailing silent blocks   : No
Null samples used in CRC calculations       : Yes
Used interface                              : Installed external ASPI interface
Gap handling                                : Appended to previous track
Used output format              : User Defined Encoder
Selected bitrate                : 256 kBit/s
Quality                         : High
Add ID3 tag                     : No
Command line compressor         : C:\Programmi\eac-1.00\Flac\flac.exe
Additional command line options : -8 -V -T "ARTIST=%artist%" -T "TITLE=%title%" -T "ALBUM=%albumtitle%" -T "DATE=%year%" -T "TRACKNUMBER=%tracknr%" %source%
TOC of the extracted CD
     Track |   Start  |  Length  | Start sector | End sector
    ---------------------------------------------------------
        1  |  0:00.50 |  8:39.35 |        50    |    39009
        2  |  8:40.10 |  5:45.42 |     39010    |    64926
        3  | 14:25.52 |  6:20.63 |     64927    |    93489
        4  | 20:46.40 |  6:58.17 |     93490    |   124856
        5  | 27:44.57 |  8:47.28 |    124857    |   164409
        6  | 36:32.10 |  6:35.40 |    164410    |   194074
Track  1
     Filename D:\My Rip\01 - Beautiful 
02:57
1010
Нет комментариев. Ваш будет первым!