Поиск

1984 The Crusaders - Ghetto Blaster {MCA, Victor VDP-17} [CD]

1984 The Crusaders - Ghetto Blaster {MCA, Victor VDP-17} [CD]
Стили:
Издатель (лейбл):

Треклист:

1. Dead End (04:58)
2. Gotta Lotta Shakalada (03:54)
3. New Moves (04:16)
4. Zalal'e Mini (Take It Easy) (06:12)
5. Night Ladies (07:08)
6. Mr. Cool (05:37)
7. Dream Street (04:28)

Состав:
  • Bass – Abraham Laboriel, Sr.
  • Bass, Saxophone – Wilton Felder
  • Drums – Leon Ndugu Chancler
  • Engineer – F. Byron Clark
  • Engineer [Assistant] – Clark Germain, Clif Jones, Doug Williams, Jim Faraci, Paul Ericksen, Terry Diane Becker
  • Guitar – Charles Fearing, Cornell Dupree, David T. Walker, Dean Parks, Roland Bautista
  • Percussion – Paulinho Da Costa
  • Piano, Keyboards, Arranged By [Strings] – Joe Sample
  • Producer – Joe Sample, Leon Ndugu Chancler, Wilton Felder
  • Programmed By [Synthesizer] – Clark Spangler, David Ervin, Dean Gant, Jon Steinhoff
  • Trumpet – Chuck Findley
Лог создания рипа
Exact Audio Copy V1.0 beta 3 from 29. August 2011

Отчёт EAC об извлечении, выполненном 28. июня 2013, 18:49

Crusaders / Ghetto Blaster [VDP-17]

Дисковод: TSSTcorpCDDVDW SH-224BB   Adapter: 0  ID: 2

Режим чтения                 : Достоверность
Использование точного потока : Да
Отключение кэша аудио        : Да
Использование указателей C2  : Нет

Коррекция смещения при чтении                     : 6
Способность читать области Lead-in и Lead-out     : Нет
Заполнение пропущенных сэмплов тишиной            : Да
Удаление блоков с тишиной в начале и конце        : Нет
При вычислениях CRC использовались нулевые сэмплы : Да
Интерфейс                                         : Встроенный Win32-интерфейс для Win NT/2000

Выходной формат          : Пользовательский кодировщик
Выбранный битрейт        : 128 kBit/s
Качество                 : Высокий
Добавление ID3-тега      : Нет
Утилита сжатия           : C:\Program Files\Exact Audio Copy\Flac\flac.exe
Дополнительные параметры : -V -8 -T "Date=%year%" -T "Genre=%genre%" %source%

TOC извлечённого CD

     Трек |   Старт  | Длительность | Начальный сектор | Конечный сектор
    ---------------------------------------------------------------------
       1  |  0:00.37 |    4:57.74   |          37      |      22385
       2  |  4:58.36 |    3:54.07   |       22386      |      39942
       3  |  8:52.43 |    4:16.05   |       39943      |      59147
       4  | 13:08.48 |    6:12.04   |       59148      |      87051
       5  | 19:20.52 |    7:07.60   |       87052      |     119136
       6  | 26:28.37 |    5:36.71   |      119137      |     144407
       7  | 32:05.33 |    4:27.39   |      144408      |     164471

Характеристики диапазона извлечения и сообщения об ошибках

Выбранный диапазон

     Имя файла C:\Music\Crusaders\1984 Ghetto Blaster\Crusaders - Ghetto Blaster [VDP-17].wav

     Пиковый уровень 100.0 %
     Скорость извлечения 2.9 X
     Качество диапазона 100.0 %
     CRC копии 4789D55D
     Копирование... OK

Ошибок не произошло

AccurateRip: сводка

Трек  1  отсутствует в базе данных
Трек  2  отсутствует в базе данных
Трек  3  отсутствует в базе данных
Трек  4  отсутствует в базе данных
Трек  5  отсутствует в базе данных
Трек  6  отсутствует в базе данных
Трек  7  отсутствует в базе данных

Ни одного трека нет в базе AccurateRip

Конец отчёта

==== Контрольная сумма отчёта 3C05556AFFFF9E5396C34BA0C1149077122ADFF03890057C35DC41A118BBD24F ====
21:47
1199
11:35
Thank you for your quality upload.