Поиск

1987 Gene Krupa & Buddy Rich - Compact Jazz {Verve} [CD]

1987 Gene Krupa & Buddy Rich - Compact Jazz {Verve} [CD]
Стили:
Дата записи диска:
1 ноября 1955 - 19 января 1962
Издатель (лейбл):
Треклист:
1. Swedish Schnapps [3:15]
2. Mulligan Stew [3:08]
3. Imagination [3:40]
4. 'S Wonderful [6:32]
5. Paradise [4:32]
6. Drummin' Man [3:08]
7. Who's Rhythm [6:21]
8. Let Me Off Uptown [3:23]
9. Gene's Solo Flight [4:15]
10. Disc Jockey Jump [4:48]
11. Gene's Blues [4:00
12. Hippedeepip [4:00]
13. Just You, Just Me [7:42]
Состав:
  • Trigger Alpert     Bass
  • Ray Brown     Bass
  • Gene Krupa     Drums
  • Buddy Rich     Drums
  • Oscar Peterson     Piano
  • Flip Phillips     Sax (Tenor)
  • Roy Eldridge     Trumpet
  • Dizzy Gillespie     Trumpet
  • George Barnes     Guitar
  • Howard Collins     Guitar
  • Herb Ellis     Guitar
  • James Isaacs     Liner Notes, Selection, Sequencing
  • Norman Granz     Original Session Producer
  • Danny Bank     Reeds
  • Sam Marowitz     Reeds
  • Gerald Sanfino     Reeds
  • Jerry Sanfino     Reeds
  • Eddie Wasserman     Reeds
  • Dennis Drake     Remixing
  • Tom "Curly" Ruff     Remixing
  • Illinois Jacquet     Sax (Tenor)
  • Phil Schaap     Tape Vault Research
  • Jimmy Cleveland     Trombone
  • Frank Rehak     Trombone
  • Don Goldie     Trumpet
  • Al Stewart     Trumpet
  • Nick Travis     Trumpet
  • Joe Wilder     Trumpet
Доп. инфо:

Год издания диска: 1987
Издатель (лейбл): Verve
Номер по каталогу: 833286-2
Страна: USA
Аудиокодек: FLAC (*.flac)
Тип рипа: tracks+.cue
Битрейт аудио: lossless
Продолжительность: 00:58:44
Источник (релизер): twofootputt
Наличие сканов в содержимом раздачи: нет

Этот релиз - отличная компиляция сольных работ Крупы в середине 50-х годов, в основном с небольшими ансамблями - так что не ищите здесь версию "Sing, Sing, Sing". Здесь есть много примечательных гостевых выступлений. Песни "Drummin' Man" и "Let Me Off Uptown" были аранжированы Куинси Джонсом, в них участвуют Анита О'Дей на вокале и Рой Элдридж на трубе. Пианист Тедди Уилсон, старый приятель Крупы со времен работы в группе Бенни Гудмана, появляется на нескольких треках. Выпускник Гудмана Лайонел Хэмптон играет на вибрациях в песне "Just You, Just Me", а тенор-саксофонист Бен Вебстер - в "Imagination" и "Swedish Schnapps". Трубач Чарли Шейверс играет на нескольких песнях и делает аранжировки для "Swedish Schnapps" и "Who's Rhythm", а Джерри Маллиган делает аранжировки для "Disc Jockey Jump" и соответствующим образом названной "Mulligan Stew". Конечно, здесь много барабанных соло Крупы, особенно в "Drummin' Man", "Gene's Solo Flight" и написанном им самим "Gene's Blues". Все это делает альбом отличным выбором для знакомства с этим мастером ударных всех времен.

Лог создания рипа
Exact Audio Copy V0.99 prebeta 5 from 4. May 2009
EAC extraction logfile from 19. January 2010, 19:53
Krupa, Gene / Compact Jazz
Used drive  : _NEC    DVD_RW ND-3550A   Adapter: 0  ID: 0
Read mode               : Secure
Utilize accurate stream : Yes
Defeat audio cache      : Yes
Make use of C2 pointers : No
Read offset correction                      : 48
Overread into Lead-In and Lead-Out          : No
Fill up missing offset samples with silence : Yes
Delete leading and trailing silent blocks   : No
Null samples used in CRC calculations       : Yes
Used interface                              : Installed external ASPI interface
Gap handling                                : Appended to previous track
Used output format              : User Defined Encoder
Selected bitrate                : 768 kBit/s
Quality                         : High
Add ID3 tag                     : No
Command line compressor         : C:\Program Files\Exact Audio Copy\FLAC\FLAC.EXE
Additional command line options : -V -8 -T "artist=%a" -T "title=%t" -T "album=%g" -T "date=%y" -T "tracknumber=%n" -T "genre=%m" %s
TOC of the extracted CD
     Track |   Start  |  Length  | Start sector | End sector
    ---------------------------------------------------------
        1  |  0:00.33 |  3:15.00 |        33    |    14657
        2  |  3:15.33 |  3:08.30 |     14658    |    28787
        3  |  6:23.63 |  3:40.10 |     28788    |    45297
        4  | 10:03.73 |  6:31.47 |     45298    |    74669
        5  | 16:35.45 |  4:32.15 |     74670    |    95084
        6  | 21:07.60 |  3:08.23 |     95085    |   109207
        7  | 24:16.08 |  6:21.20 |    109208    |   137802
        8  | 30:37.28 |  3:23.02 |    137803    |   153029
        9  | 34:00.30 |  4:14.48 |    153030    |   172127
       10  | 38:15.03 |  4:47.65 |    172128    |   193717
       11  | 43:02.68 |  3:59.72 |    193718    |   211714
       12  | 47:02.65 |  4:00.18 |    211715    |   229732
       13  | 51:03.08 |  7:42.25 |    229733    |   264407
Track  1
     Filename L:\Gene Krupa - Compact Jazz FLAC\Krupa, Gene - Compact Jazz - 01 - Gene Krupa , Drummin' Man.wav
     Pre-gap length  0:00:02.44
     Peak level 91.2 %
     Track quality 100.0 %
     Test CRC DC2EB86A
     Copy CRC DC2EB86A
     Accurately ripped (confidence 4)  [58482F78]
     Copy OK
Track  2
     Filename L:\Gene Krupa - Compact Jazz FLAC\Krupa, Gene - Compact Jazz - 02 - Gene Krupa , Swedish Schnapps.wav
     Pre-gap length  0:00:01.60
     Peak level 85.2 %
     Track quality 100.0 %
     Test CRC 38EEA622
     Copy CRC 38EEA622
     Accurately ripped (confidence 3)  [48BEF1A1]
     Copy OK
Track  3
     Filename L:\Gene Krupa - Compact Jazz FLAC\Krupa, Gene - Compact Jazz - 03 - Gene Krupa , Paradise.wav
     Pre-gap length  0:00:01.60
     Peak level 81.9 %
     Track quality 99.9 %
     Test CRC A20AF45E
     Copy CRC A20AF45E
     Accurately ripped (confidence 3)  [3586BF87]
     Copy OK
Track  4
     Filename L:\Gene Krupa - Compact Jazz FLAC\Krupa, Gene - Compact Jazz - 04 - Gene Krupa , Just You, Just Me.wav
     Pre-gap length  0:00:01.41
     Peak level 88.7 %
     Track quality 100.0 %
     Test CRC CF7C5877
     Copy CRC CF7C5877
     Accurately ripped (confidence 3)  [3BB95C46]
     Copy OK
Track  5
     Filename L:\Gene Krupa - Compact Jazz FLAC\Krupa, Gene - Compact Jazz - 05 - Gene Krupa , Gene's Solo Flight.wav
     Pre-gap length  0:00:01.42
     Peak level 100.0 %
     Track quality 100.0 %
     Test CRC F3424562
     Copy CRC F3424562
     Accurately ripped (confidence 3)  [3597F71F]
     Copy OK
Track  6
     Filename L:\Gene Krupa - Compact Jazz FLAC\Krupa, Gene - Compact Jazz - 06 - Gene Krupa , Disc Jockey Jump.wav
     Pre-gap length  0:00:01.58
     Peak level 83.4 %
     Track quality 100.0 %
     Test CRC E2B742E6
     Copy CRC E2B742E6
     Accurately ripped (confidence 3)  [0E952043]
     Copy OK
Track  7
     Filename L:\Gene Krupa - Compact Jazz FLAC\Krupa, Gene - Compact Jazz - 07 - Gene Krupa , 'S Wonderful.wav
     Pre-gap length  0:00:01.45
     Peak level 95.8 %
     Track quality 100.0 %
     Test CRC 64516AB5
     Copy CRC 64516AB5
     Accurately ripped (confidence 3)  [4B38A5AA]
     Copy OK
Track  8
     Filename L:\Gene Krupa - Compact Jazz FLAC\Krupa, Gene - Compact Jazz - 08 - Gene Krupa , Let Me Off Uptown.wav
     Pre-gap length  0:00:01.40
     Peak level 79.7 %
     Track quality 100.0 %
     Test CRC BC0E4428
     Copy CRC BC0E4428
     Accurately ripped (confidence 3)  [2CA5F4DB]
     Copy OK
Track  9
     Filename L:\Gene Krupa - Compact Jazz FLAC\Krupa, Gene - Compact Jazz - 09 - Gene Krupa , Hippdeebip.wav
     Pre-gap length  0:00:01.61
     Peak level 99.5 %
     Track quality 100.0 %
     Test CRC 4AD7669C
     Copy CRC 4AD7669C
     Accurately ripped (confidence 3)  [A49FAA3D]
     Copy OK
Track 10
     Filename L:\Gene Krupa - Compact Jazz FLAC\Krupa, Gene - Compact Jazz - 10 - Gene Krupa , Imagination.wav
     Pre-gap length  0:00:01.60
     Peak level 79.4 %
     Track quality 99.9 %
     Test CRC C30AB582
     Copy CRC C30AB582
     Accurately ripped (confidence 2)  [8E0D1EDE]
     Copy OK
Track 11
     Filename L:\Gene Krupa - Compact Jazz FLAC\Krupa, Gene - Compact Jazz - 11 - Gene Krupa , Who's Rhythm.wav
     Pre-gap length  0:00:01.48
     Peak level 80.1 %
     Track quality 100.0 %
     Test CRC 245DEF10
     Copy CRC 245DEF10
     Accurately ripped (confidence 3)  [496C0B9B]
     Copy OK
Track 12
     Filename L:\Gene Krupa - Compact Jazz FLAC\Krupa, Gene - Compact Jazz - 12 - Gene Krupa , Mulligan Stew.wav
     Pre-gap length  0:00:01.33
     Peak level 78.6 %
     Track quality 100.0 %
     Test CRC 6C0DF2E8
     Copy CRC 6C0DF2E8
     Accurately ripped (confidence 3)  [EC8E795F]
     Copy OK
Track 13
     Filename L:\Gene Krupa - Compact Jazz FLAC\Krupa, Gene - Compact Jazz - 13 - Gene Krupa , Gene's Blues.wav
     Pre-gap length  0:00:01.41
     Peak level 80.9 %
     Track quality 100.0 %
     Test CRC 2F7889FA
     Copy CRC 2F7889FA
     Accurately ripped (confidence 2)  [E471D6CF]
     Copy OK
All tracks accurately ripped
No errors occurred
End of status report
22:58
774
Нет комментариев. Ваш будет первым!