Поиск

1990 Art Tatum - 1932-1934 {The Chronological Classics 507} [CD]

1990 Art Tatum - 1932-1934 {The Chronological Classics 507} [CD]
Стили:
Издатель (лейбл):
Номер по каталогу:
507
Страна-производитель диска (релиза):
France
Треклист:
01. Tiger Rag (DaCosta, Edwards, LaRocca ...) - 2:01
02. Strange as It Seems (Razaf, Waller) - 3:06
03. I'll Never Be the Same (Kahn, Malneck, Signorelli) - 3:13
04. You Gave Me Everything But Love (Arlen, Koehler) - 3:10
05. This Time, It's Love (Coots, Lewis) - 3:11
06. Tea for Two (Caesar, Youmans) - 3:14
07. St. Louis Blues (Handy) - 2:39
08. Tiger Rag (DaCosta, Edwards, LaRocca ...) - 2:20
09. Sophisticated Lady (Ellington, Mills, Parish) - 3:17
10. Moonglow (DeLange, Hudson, Mills) - 2:41
11. (I Would Do) Anything for You (Hill, Hopkins, Williams) - 2:42
12. When a Woman Loves a Man (Hanighen, Jenkins, Mercer) - 3:03
13. Emaline (Parish, Perkins) - 2:41
14. Love Me (Washington, Young) - 2:58
15. Cocktails for Two (Coslow, Johnston) - 2:47
16. After You've Gone (Creamer, Layton) - 3:09
17. Ill Wind (Arlen, Koehler) - 2:56
18. The Shout (Scott) - 2:50
19. Liza (All the Clouds'll Roll Away) (Gershwin, Gershwin, Kahn) - 2:48
20. (I Would Do) Anything for You (Hill, Hopkins, Williams) - 2:42
21. When a Woman Loves a Man (Hanighen, Jenkins, Mercer) - 3:09
22. After You've Gone (Creamer, Layton) - 2:51
23. Stardust (Carmichael, Parish) - 3:10
24. I Ain't Got Nobody (Graham, Peyton, Williams) - 3:22
25. Beautiful Love (Gillespie, King, VanAlstyne ...) - 2:46
Состав:
  • Jimmy Dorsey — Clarinet
  • Dick McDonough — Guitar
  • Francis J. Carter — Piano
  • Art Tatum — Piano, Soloist
  • Charlie Teagarden — Trumpet
  • Adelaide Hall — Vocals, Performer
Лог создания рипа
EAC extraction logfile from 1. November 2007, 13:37 for CD
Art Tatum / 1932 - 1934
Used drive  : HL-DT-STCDRW/DVD GCC4482   Adapter: 1  ID: 0
Read mode   : Secure with NO C2, accurate stream, disable cache
Read offset correction : 6
Overread into Lead-In and Lead-Out : No
Used output format : C:\Eac\Codecs\flac.exe   (User Defined Encoder)
                     320 kBit/s
                     Additional command line options : -8 -V -T "artist=%a" -T "title=%t" -T "album=%g" -T "date=%y" -T "tracknumber=%n" -T "genre=%m" -T "comment=EAC Flac 1.1.2 -8" %s
Other options      :
    Fill up missing offset samples with silence : Yes
    Delete leading and trailing silent blocks : No
    Installed external ASPI interface
Track  1
     Filename C:\Documents and Settings\tatum\01 - Tiger Rag.wav
     Pre-gap length  0:00:02.44
     Peak level 72.4 %
     Track quality 100.0 %
     Test CRC EFD9ECF4
     Copy CRC EFD9ECF4
     Copy OK
Track  2
     Filename C:\Documents and Settings\tatum\02 - Strange As It Seems.wav
     Pre-gap length  0:00:01.20
     Peak level 61.6 %
     Track quality 100.0 %
     Test CRC 23CF9DF0
     Copy CRC 23CF9DF0
     Copy OK
Track  3
     Filename C:\Documents and Settings\tatum\03 - I'll Never Be The Same.wav
     Pre-gap length  0:00:01.00
     Peak level 48.3 %
     Track quality 100.0 %
     Test CRC FC79EEF0
     Copy CRC FC79EEF0
     Copy OK
Track  4
     Filename C:\Documents and Settings\tatum\04 - You Gave Me Everything But Love.wav
     Pre-gap length  0:00:01.70
     Peak level 57.5 %
     Track quality 100.0 %
     Test CRC E17DF2C5
     Copy CRC E17DF2C5
     Copy OK
Track  5
     Filename C:\Documents and Settings\tatum\05 - This Time It's Love.wav
     Pre-gap length  0:00:01.64
     Peak level 51.3 %
     Track quality 100.0 %
     Test CRC 1D00061B
     Copy CRC 1D00061B
     Copy OK
Track  6
     Filename C:\Documents and Settings\tatum\06 - The For Two.wav
     Pre-gap length  0:00:01.49
     Peak level 59.3 %
     Track quality 100.0 %
     Test CRC 07C10A9F
     Copy CRC 07C10A9F
     Copy OK
Track  7
     Filename C:\Documents and Settings\tatum\07 - St. Louis Blues.wav
     Pre-gap length  0:00:01.66
     Peak level 67.8 %
     Track quality 99.9 %
     Test CRC A333D297
     Copy CRC A333D297
     Copy OK
Track  8
     Filename C:\Documents and Settings\tatum\08 - Tiger Rag.wav
     Pre-gap length  0:00:01.24
     Peak level 81.8 %
     Track quality 100.0 %
     Test CRC 1417677E
     Copy CRC 1417677E
     Copy OK
Track  9
     Filename C:\Documents and Settings\tatum\09 - Sophisticated Lady.wav
     Pre-gap length  0:00:01.44
     Peak level 64.2 %
     Track quality 100.0 %
     Test CRC 24BE01D9
     Copy CRC 24BE01D9
     Copy OK
Track 10
     Filename C:\Documents and Settings\tatum\10 - Moonglow.wav
     Pre-gap length  0:00:01.49
     Peak level 75.1 %
     Track quality 100.0 %
     Test CRC D0D89C54
     Copy CRC D0D89C54
     Copy OK
Track 11
     Filename C:\Documents and Settings\tatum\11 - I Would Do Anything For You.wav
     Pre-gap length  0:00:02.46
     Peak level 57.8 %
     Track quality 99.9 %
     Test CRC 0B4DFDE3
     Copy CRC 0B4DFDE3
     Copy OK
Track 12
     Filename C:\Documents and Settings\tatum\12 - When A Woman Loves A Man.wav
     Pre-gap length  0:00:01.49
     Peak level 72.0 %
     Track quality 99.9 %
     Test CRC 4E016A44
     Copy CRC 4E016A44
     Copy OK
Track 13
     Filename C:\Documents and Settings\tatum\13 - Emaline.wav
     Pre-gap length  0:00:01.00
     Peak level 73.0 %
     Track quality 100.0 %
     Test CRC C2F9B497
     Copy CRC C2F9B497
     Copy OK
Track 14
     Filename C:\Documents and Settings\tatum\14 - Love Me.wav
     Pre-gap length  0:00:01.97
     Peak level 76.7 %
     Track quality 100.0 %
     Test CRC 24E24144
     Copy CRC 24E24144
     Copy OK
Track 15
     Filename C:\Documents and Settings\tatum\15 - Cocktails For Two.wav
     Pre-gap length  0:00:01.37
     Peak level 75.8 %
     Track quality 100.0 %
     Test CRC B13B52A7
     Copy CRC B13B52A7
     Copy OK
Track 16
     Filename C:\Documents and Settings\tatum\16 - After You've Gone.wav
     Pre-gap length  0:00:01.64
     Peak level 73.1 %
     Track quality 99.9 %
     Test CRC C4531FA8
     Copy CRC C4531FA8
     Copy OK
Track 17
     Filename C:\Documents and Settings\tatum\17 - Ill Wind.wav
     Pre-gap length  0:00:01.76
     Peak level 65.2 %
     Track quality 100.0 %
     Test CRC 92713970
     Copy CRC 92713970
     Copy OK
Track 18
     Filename C:\Documents and Settings\tatum\18 - The Shout.wav
     Pre-gap length  0:00:01.57
     Peak level 62.4 %
     Track quality 100.0 %
     Test CRC 3F1BA378
     Copy CRC 3F1BA378
     Copy OK
Track 19
     Filename C:\Documents and Settings\tatum\19 - Liza.wav
     Pre-gap length  0:00:01.77
     Peak level 89.3 %
     Track quality 100.0 %
     Test CRC E9E998FC
     Copy CRC E9E998FC
     Copy OK
Track 20
     Filename C:\Documents and Settings\tatum\20 - I Would Do Anything For You.wav
     Pre-gap length  0:00:01.96
     Peak level 73.2 %
     Track quality 99.9 %
     Test CRC 1B261AEA
     Copy CRC 1B261AEA
     Copy OK
Track 21
     Filename C:\Documents and Settings\tatum\21 - When A Woman Loves A Man.wav
     Pre-gap length  0:00:02.30
     Peak level 53.8 %
     Track quality 100.0 %
     Test CRC 84D1E795
     Copy CRC 84D1E795
     Copy OK
Track 22
     Filename C:\Documents and Settings\tatum\22 - After You've Gone.wav
     Pre-gap length  0:00:02.20
     Peak level 69.6 %
     Track quality 100.0 %
     Test CRC 1D6FC26B
     Copy CRC 1D6FC26B
     Copy OK
Track 23
     Filename C:\Documents and Settings\tatum\23 - Star Dust.wav
     Pre-gap length  0:00:01.66
     Peak level 86.6 %
     Track quality 100.0 %
     Test CRC 569EF093
     Copy CRC 569EF093
     Copy OK
Track 24
     Filename C:\Documents and Settings\tatum\24 - I Ain't Got Nobody.wav
     Pre-gap length  0:00:01.73
     Peak level 87.3 %
     Track quality 100.0 %
     Test CRC 76F9395B
     Copy CRC 76F9395B
     Copy OK
Track 25
     Filename C:\Documents and Settings\tatum\25 - Beautiful Love.wav
     Pre-gap length  0:00:01.89
     Peak level 98.4 %
     Track quality 100.0 %
     Test CRC F0DE793D
     Copy CRC F0DE793D
     Copy OK
No errors occured
End of status report
Лог проверки качества
791295109 21356204 01 - Tiger Rag.wav
1154266716 32892764 02 - Strange As It Seems.wav
311520847 34186364 03 - I'll Never Be The Same.wav
709175231 33668924 04 - You Gave Me Everything But Love.wav
1054004744 33755948 05 - This Time It's Love.wav
2511923136 34393340 06 - The For Two.wav
3734985099 28059404 07 - St. Louis Blues.wav
2613134503 24848924 08 - Tiger Rag.wav
3234493635 34826108 09 - Sophisticated Lady.wav
3604043430 28478060 10 - Moonglow.wav
856696938 28581548 11 - I Would Do Anything For You.wav
2877021460 32328284 12 - When A Woman Loves A Man.wav
3648866615 28489820 13 - Emaline.wav
2101991330 31552124 14 - Love Me.wav
3627920564 29611724 15 - Cocktails For Two.wav
2648262827 33438428 16 - After You've Gone.wav
2613532057 31147580 17 - Ill Wind.wav
3156330680 30070364 18 - The Shout.wav
1038124584 29769308 19 - Liza.wav
1169367227 28701500 20 - I Would Do Anything For You.wav
3419106278 33414908 21 - When A Woman Loves A Man.wav
1923626214 30289100 22 - After You've Gone.wav
2047935787 33668924 23 - Star Dust.wav
966290829 35778668 24 - I Ain't Got Nobody.wav
2887094019 29324780 25 - Beautiful Love.wav
auCDtect: CD records authenticity detector, version 0.8.2
Copyright (c) 2004 Oleg Berngardt. All rights reserved.
Copyright (c) 2004 Alexander Djourik. All rights reserved.
------------------------------------------------------------
Processing file: [01 - Tiger Rag.wav]
------------------------------------------------------------
This track looks like CDDA with probability 100%
------------------------------------------------------------
Processing file: [02 - Strange As It Seems.wav]
------------------------------------------------------------
This track looks like CDDA with probability 100%
------------------------------------------------------------
Processing file: [03 - I'll Never Be The Same.wav]
------------------------------------------------------------
This track looks like CDDA with probability 100%
------------------------------------------------------------
Processing file: [04 - You Gave Me Everything But Love.wav]
------------------------------------------------------------
This track looks like CDDA with probability 100%
------------------------------------------------------------
Processing file: [05 - This Time It's Love.wav]
------------------------------------------------------------
This track looks like CDDA with probability 100%
------------------------------------------------------------
Processing file: [06 - The For Two.wav]
------------------------------------------------------------
This track looks like CDDA with probability 100%
------------------------------------------------------------
Processing file: [07 - St. Louis Blues.wav]
------------------------------------------------------------
This track looks like CDDA with probability 100%
------------------------------------------------------------
Processing file: [08 - Tiger Rag.wav]
------------------------------------------------------------
This track looks like CDDA with probability 100%
------------------------------------------------------------
Processing file: [09 - Sophisticated Lady.wav]
------------------------------------------------------------
This track looks like CDDA with probability 100%
------------------------------------------------------------
Processing file: [10 - Moonglow.wav]
------------------------------------------------------------
This track looks like CDDA with probability 100%
------------------------------------------------------------
Processing file: [11 - I Would Do Anything For You.wav]
------------------------------------------------------------
This track looks like CDDA with probability 100%
------------------------------------------------------------
Processing file: [12 - When A Woman Loves A Man.wav]
------------------------------------------------------------
This track looks like CDDA with probability 100%
------------------------------------------------------------
Processing file: [13 - Emaline.wav]
------------------------------------------------------------
This track looks like CDDA with probability 100%
------------------------------------------------------------
Processing file: [14 - Love Me.wav]
------------------------------------------------------------
This track looks like CDDA with probability 100%
------------------------------------------------------------
Processing file: [15 - Cocktails For Two.wav]
------------------------------------------------------------
This track looks like CDDA with probability 100%
------------------------------------------------------------
Processing file: [16 - After You've Gone.wav]
------------------------------------------------------------
This track looks like CDDA with probability 99%
------------------------------------------------------------
Processing file: [17 - Ill Wind.wav]
------------------------------------------------------------
This track looks like CDDA with probability 100%
------------------------------------------------------------
Processing file: [18 - The Shout.wav]
------------------------------------------------------------
This track looks like CDDA with probability 99%
------------------------------------------------------------
Processing file: [19 - Liza.wav]
------------------------------------------------------------
This track looks like CDDA with probability 100%
------------------------------------------------------------
Processing file: [20 - I Would Do Anything For You.wav]
------------------------------------------------------------
This track looks like CDDA with probability 100%
------------------------------------------------------------
Processing file: [21 - When A Woman Loves A Man.wav]
------------------------------------------------------------
This track looks like CDDA with probability 99%
------------------------------------------------------------
Processing file: [22 - After You've Gone.wav]
------------------------------------------------------------
This track looks like CDDA with probability 100%
------------------------------------------------------------
Processing file: [23 - Star Dust.wav]
------------------------------------------------------------
This track looks like CDDA with probability 100%
------------------------------------------------------------
Processing file: [24 - I Ain't Got Nobody.wav]
------------------------------------------------------------
This track looks like CDDA with probability 99%
------------------------------------------------------------
Processing file: [25 - Beautiful Love.wav]
------------------------------------------------------------
This track looks like CDDA with probability 100%
------------------------------------------------------------
Final Conclusion:
------------------------------------------------------------
These tracks looks like CDDA with probability 100%
10:25
822
Нет комментариев. Ваш будет первым!