Поиск

1990 Jelly Roll Morton - His Complete Victor Recordings {Bluebird, RCA} [5CD]

1990 Jelly Roll Morton - His Complete Victor Recordings {Bluebird, RCA} [5CD]
Издатель (лейбл):

Носитель: CD
Год издания: 1990
Издатель (лейбл): Bluebird/RCA
Номер по каталогу: 2361-2-RB
Аудиокодек: FLAC (*.flac)
Тип рипа: tracks+.cue
Битрейт аудио: lossless
Продолжительность: 05:41:46
Rip by LolaMontes
Наличие сканов в содержимом раздачи: да 

 
Disc 1 [72:04]
01. Black Bottom Stomp (Jelly Roll Morton's Red Hot Peppers) (3:13)
02. Smoke House Blues (Jelly Roll Morton's Red Hot Peppers) (3:28)
03. The Chant (Take 1) (Jelly Roll Morton's Red Hot Peppers) (3:12)
04. The Chant (Take 3) (Jelly Roll Morton's Red Hot Peppers) (3:12)
05. Sidewalk Blues (Take 2) (Jelly Roll Morton's Red Hot Peppers) (3:33)
06. Sidewalk Blues (Take 3) (Jelly Roll Morton's Red Hot Peppers) (3:29)
07. Dead Man Blues (Take 1) (Jelly Roll Morton's Red Hot Peppers) (3:14)
08. Dead Man Blues (Take 2) (Jelly Roll Morton's Red Hot Peppers) (3:24)
09. Steamboat Stomp (Jelly Roll Morton's Red Hot Peppers) (3:08)
10. Someday Sweetheart (Take 2) (Jelly Roll Morton's Red Hot Peppers) (3:29)
11. Someday Sweetheart (Take 3) (Jelly Roll Morton's Red Hot Peppers) (3:29)
12. Grandpa's Spells (Take 2) (Jelly Roll Morton's Red Hot Peppers) (2:54)
13. Grandpa's Spells (Take 3) (Jelly Roll Morton's Red Hot Peppers) (2:54)
14. Original Jelly-Roll Blues (Take 1) (Jelly Roll Morton's Red Hot Peppers) (3:05)
15. Original Jelly-Roll Blues (Take 2) (Jelly Roll Morton's Red Hot Peppers) (3:04)
16. Doctor Jazz (Jelly Roll Morton's Red Hot Peppers) (3:24)
17. Cannon Ball Blues (Take 1) (Jelly Roll Morton's Red Hot Peppers) (2:53)
18. Cannon Ball Blues (Take 2) (Jelly Roll Morton's Red Hot Peppers) (3:33)
19. Hyena Stomp (Take 2) (Jelly Roll Morton's Red Hot Peppers) (3:13)
20. Hyena Stomp (Take 3) (Jelly Roll Morton's Red Hot Peppers) (3:13)
21. Billi Goat Stomp (Take 1) (Jelly Roll Morton's Red Hot Peppers) (3:33)
22. Billy Goat Stomp (Take 3) (Jelly Roll Morton's Red Hot Peppers) (3:28)
 
Лог создания рипа
Exact Audio Copy V1.0 beta 4 from 7. December 2014
EAC extraction logfile from 28. May 2015, 11:24
Jelly Roll Morton / The Jelly Roll Morton Centennial: The Complete Victor Recordings
Used drive  : HL-DT-STDVD+-RW GH82N   Adapter: 1  ID: 0
Read mode               : Secure
Utilize accurate stream : Yes
Defeat audio cache      : Yes
Make use of C2 pointers : No
Read offset correction                      : 667
Overread into Lead-In and Lead-Out          : No
Fill up missing offset samples with silence : Yes
Delete leading and trailing silent blocks   : No
Null samples used in CRC calculations       : Yes
Used interface                              : Native Win32 interface for Win NT & 2000
Gap handling                                : Appended to previous track
Used output format              : User Defined Encoder
Selected bitrate                : 1024 kBit/s
Quality                         : High
Add ID3 tag                     : No
Command line compressor         : C:\Program Files (x86)\Exact Audio Copy\FLAC\FLAC.EXE
Additional command line options : -6 -V -T "ARTIST=%artist%" -T "TITLE=%title%" -T "ALBUM=%albumtitle%" -T "DATE=%year%" -T "TRACKNUMBER=%tracknr%" -T "GENRE=%genre%" -T "COMMENT=%comment%" -T "BAND=%albuminterpret%" -T "ALBUMARTIST=%albuminterpret%" -T "COMPOSER=%composer%" %haslyrics%--tag-from-file=LYRICS="%lyricsfile%"%haslyrics% -T "DISCNUMBER=%cdnumber%" -T "TOTALDISCS=%totalcds%" -T "TOTALTRACKS=%numtracks%" %hascover%--picture="%coverfile%"%hascover% %source% -o %dest%
TOC of the extracted CD
     Track |   Start  |  Length  | Start sector | End sector
    ---------------------------------------------------------
        1  |  0:00.37 |  3:12.63 |        37    |    14499
        2  |  3:13.25 |  3:27.50 |     14500    |    30074
        3  |  6:41.00 |  3:12.00 |     30075    |    44474
        4  |  9:53.00 |  3:11.70 |     44475    |    58869
        5  | 13:04.70 |  3:32.70 |     58870    |    74839
        6  | 16:37.65 |  3:29.05 |     74840    |    90519
        7  | 20:06.70 |  3:13.67 |     90520    |   105061
        8  | 23:20.62 |  3:23.38 |    105062    |   120324
        9  | 26:44.25 |  3:08.00 |    120325    |   134424
       10  | 29:52.25 |  3:29.37 |    134425    |   150136
       11  | 33:21.62 |  3:29.03 |    150137    |   165814
       12  | 36:50.65 |  2:54.05 |    165815    |   178869
       13  | 39:44.70 |  2:54.00 |    178870    |   191919
       14  | 42:38.70 |  3:05.25 |    191920    |   205819
       15  | 45:44.20 |  3:03.40 |    205820    |   219584
       16  | 48:47.60 |  3:24.05 |    219585    |   234889
       17  | 52:11.65 |  2:52.62 |    234890    |   247851
       18  | 55:04.52 |  3:33.33 |    247852    |   263859
       19  | 58:38.10 |  3:12.65 |    263860    |   278324
       20  | 61:51.00 |  3:12.57 |    278325    |   292781
       21  | 65:03.57 |  3:32.58 |    292782    |   308739
       22  | 68:36.40 |  3:28.02 |    308740    |   324341
Track  1
     Filename C:\Rips\Jelly Roll Morton - His Complete Victor Recordings\CD 1\01 Black Bottom Stomp.wav
     Pre-gap length  0:00:02.37
     Peak level 88.2 %
     Extraction speed 1.8 X
     Track quality 100.0 %
     Copy CRC 0E15A606
     Accurately ripped (confidence 4)  [FACC2ADB]  (AR v2)
     Copy OK
Track  2
     Filename C:\Rips\Jelly Roll Morton - His Complete Victor Recordings\CD 1\02 Smoke House Blues.wav
     Pre-gap length  0:00:01.62
     Peak level 86.8 %
     Extraction speed 1.9 X
     Track quality 100.0 %
     Copy CRC 63ABC39E
     Accurately ripped (confidence 4)  [F51D1779]  (AR v2)
     Copy OK
Track  3
     Filename C:\Rips\Jelly Roll Morton - His Complete Victor Recordings\CD 1\03 The Chant (Take 1).wav
     Pre-gap length  0:00:01.62
     Peak level 80.6 %
     Extraction speed 2.1 X
     Track quality 100.0 %
     Copy CRC 31DBA45A
     Accurately ripped (confidence 4)  [78145E8E]  (AR v2)
     Copy OK
Track  4
     Filename C:\Rips\Jelly Roll Morton - His Complete Victor Recordings\CD 1\04 The Chant (Take 3).wav
     Pre-gap length  0:00:01.65
     Peak level 80.9 %
     Extraction speed 2.2 X
     Track quality 100.0 %
     Copy CRC C275FF88
     Accurately ripped (confidence 4)  [8DB16034]  (AR v2)
     Copy OK
Track  5
     Filename C:\Rips\Jelly Roll Morton - His Complete Victor Recordings\CD 1\05 Sidewalk Blues (Take 2).wav
     Pre-gap length  0:00:01.52
     Peak level 83.6 %
     Extraction speed 2.4 X
     Track quality 100.0 %
     Copy CRC 901DC4D7
     Accurately ripped (confidence 4)  [E6BDAC92]  (AR v2)
     Copy OK
Track  6
     Filename C:\Rips\Jelly Roll Morton - His Complete Victor Recordings\CD 1\06 Sidewalk Blues (Take 3).wav
     Pre-gap length  0:00:01.62
     Peak level 76.7 %
     Extraction speed 2.4 X
     Track quality 100.0 %
     Copy CRC 96CBCD0E
     Accurately ripped (confidence 4)  [9D1D9F54]  (AR v2)
     Copy OK
Track  7
     Filename C:\Rips\Jelly Roll Morton - His Complete Victor Recordings\CD 1\07 Dead Man Blues (Take 1).wav
     Pre-gap length  0:00:01.62
     Peak level 81.9 %
     Extraction speed 2.2 X
     Track quality 99.9 %
     Copy CRC 742C7988
     Accurately ripped (confidence 4)  [CC4D314F]  (AR v2)
     Copy OK
Track  8
     Filename C:\Rips\Jelly Roll Morton - His Complete Victor Recordings\CD 1\08 Dead Man Blues (Take 2).wav
     Pre-gap length  0:00:01.62
     Peak level 48.8 %
     Extraction speed 2.3 X
     Track quality 99.9 %
     Copy CRC 8A61C153
     Accurately ripped (confidence 4)  [F3027765]  (AR v2)
     Copy OK
Track  9
     Filename C:\Rips\Jelly Roll Morton - His Complete Victor Recordings\CD 1\09 Steamboat Stomp.wav
     Pre-gap length  0:00:01.62
     Peak level 83.4 %
     Extraction speed 2.8 X
     Track quality 100.0 %
     Copy CRC C7467D08
     Accurately ripped (confidence 4)  [BC79EA12]  (AR v2)
     Copy OK
Track 10
     Filename C:\Rips\Jelly Roll Morton - His Complete Victor Recordings\CD 1\10 Someday Sweetheart (Take 2).wav
     Pre-gap length  0:00:01.62
     Peak level 81.8 %
     Extraction speed 2.5 X
     Track quality 99.9 %
     Copy CRC 9F9ACFE2
     Accurately ripped (confidence 4)  [5A1C490E]  (AR v2)
     Copy OK
Track 11
     Filename C:\Rips\Jelly Roll Morton - His Complete Victor Recordings\CD 1\11 Someday Sweetheart (Take 3).wav
     Pre-gap length  0:00:01.47
     Peak level 70.5 %
     Extraction speed 2.9 X
     Track quality 100.0 %
     Copy CRC E390336A
     Accurately ripped (confidence 4)  [2DBC1B7E]  (AR v2)
     Copy OK
Track 12
     Filename C:\Rips\Jelly Roll Morton - His Complete Victor Recordings\CD 1\12 Grandpa's Spells (Take 2).wav
     Pre-gap length  0:00:02.20
     Peak level 74.3 %
     Extraction speed 3.0 X
     Track quality 100.0 %
     Copy CRC 44B4BD9A
     Accurately ripped (confidence 4)  [D7E7E6AE]  (AR v2)
     Copy OK
Track 13
     Filename C:\Rips\Jelly Roll Morton - His Complete Victor Recordings\CD 1\13 Grandpa's Spells (Take 3).wav
     Pre-gap length  0:00:01.62
     Peak level 66.3 %
     Extraction speed 3.1 X
     Track quality 100.0 %
     Copy CRC 40AD9255
     Accurately ripped (confidence 4)  [1CD46915]  (AR v2)
     Copy OK
Track 14
     Filename C:\Rips\Jelly Roll Morton - His Complete Victor Recordings\CD 1\14 Original Jelly-Roll Blues (Take 1).wav
     Pre-gap length  0:00:01.62
     Peak level 90.4 %
     Extraction speed 3.2 X
     Track quality 100.0 %
     Copy CRC B9035A10
     Accurately ripped (confidence 4)  [97E6E19A]  (AR v2)
     Copy OK
Track 15
     Filename C:\Rips\Jelly Roll Morton - His Complete Victor Recordings\CD 1\15 Original Jelly-Roll Blues (Take 2).wav
     Pre-gap length  0:00:01.60
     Peak level 89.7 %
     Extraction speed 3.2 X
     Track quality 100.0 %
     Copy CRC 4141E87E
     Accurately ripped (confidence 4)  [0E920FB5]  (AR v2)
     Copy OK
Track 16
     Filename C:\Rips\Jelly Roll Morton - His Complete Victor Recordings\CD 1\16 Doctor Jazz.wav
     Pre-gap length  0:00:01.42
     Peak level 94.8 %
     Extraction speed 3.3 X
     Track quality 100.0 %
     Copy CRC 90CFCF3F
     Accurately ripped (confidence 4)  [184EC90F]  (AR v2)
     Copy OK
Track 17
     Filename C:\Rips\Jelly Roll Morton - His Complete Victor Recordings\CD 1\17 Cannon Ball Blues (Take 1).wav
     Pre-gap length  0:00:01.62
     Peak level 66.9 %
     Extraction speed 3.3 X
     Track quality 100.0 %
     Copy CRC 7E1289C5
     Accurately ripped (confidence 4)  [6EC4032C]  (AR v2)
     Copy OK
Track 18
     Filename C:\Rips\Jelly Roll Morton - His Complete Victor Recordings\CD 1\18 Cannon Ball Blues (Take 2).wav
     Pre-gap length  0:00:01.62
     Peak level 60.8 %
     Extraction speed 3.0 X
     Track quality 99.9 %
     Copy CRC 8C8FF23F
     Accurately ripped (confidence 4)  [70F52FCF]  (AR v2)
     Copy OK
Track 19
     Filename C:\Rips\Jelly Roll Morton - His Complete Victor Recordings\CD 1\19 Hyena Stomp (Take 2).wav
     Pre-gap length  0:00:01.62
     Peak level 74.7 %
     Extraction speed 3.0 X
     Track quality 99.9 %
     Copy CRC E623FDBE
     Accurately ripped (confidence 4)  [A7226013]  (AR v2)
     Copy OK
Track 20
     Filename C:\Rips\Jelly Roll Morton - His Complete Victor Recordings\CD 1\20 Hyena Stomp (Take 3).wav
     Pre-gap length  0:00:01.62
     Peak level 88.9 %
     Extraction speed 3.6 X
     Track quality 100.0 %
     Copy CRC 4EDBD1DC
     Accurately ripped (confidence 4)  [DCE133AD]  (AR v2)
     Copy OK
Track 21
     Filename C:\Rips\Jelly Roll Morton - His Complete Victor Recordings\CD 1\21 Billi Goat Stomp (Take 1).wav
     Pre-gap length  0:00:01.62
     Peak level 77.8 %
     Extraction speed 3.7 X
     Track quality 100.0 %
     Copy CRC D6A6DBDC
     Accurately ripped (confidence 4)  [ECFDA8F1]  (AR v2)
     Copy OK
Track 22
     Filename C:\Rips\Jelly Roll Morton - His Complete Victor Recordings\CD 1\22 Billy Goat Stomp (Take 3).wav
     Pre-gap length  0:00:01.62
     Peak level 96.8 %
     Extraction speed 3.8 X
     Track quality 100.0 %
     Copy CRC 61CA0522
     Accurately ripped (confidence 4)  [87B2599C]  (AR v2)
     Copy OK
All tracks accurately ripped
No errors occurred
End of status report
---- CUETools DB Plugin V2.1.4
[CTDB TOCID: o42dnKCif4VnFyTG7V0HDOUCPz8-] disk not present in database
Submit result: o42dnKCif4VnFyTG7V0HDOUCPz8- has been uploaded
==== Log checksum 999A24C89A6F8344DD82A8A75C00948AE0FF7A3C678D981D1743BF37F73D9018 ====
 
Disc 2 [73:58]
01. Wild Man Blues (Take 1) (Jelly Roll Morton's Red Hot Peppers) (3:08)
02. Wild Man Blues (Take 3) (Jelly Roll Morton's Red Hot Peppers) (3:13)
03. Jungle Blues (Take 2) (Jelly Roll Morton's Red Hot Peppers) (3:26)
04. Jungle Blues (Take 3) (Jelly Roll Morton's Red Hot Peppers) (3:30)
05. Beale Street Blues (Take 1) (Jelly Roll Morton's Red Hot Peppers) (3:15)
06. Beale Street Blues (Take 2) (Jelly Roll Morton's Red Hot Peppers) (3:10)
07. The Pearls (Take 2) (Jelly Roll Morton's Red Hot Peppers) (3:22)
08. The Pearls (Take 3) (Jelly Roll Morton's Red Hot Peppers) (3:25)
09. Wolverine Blues (Take 1) (Jelly Roll Morton Trio) (3:18)
10. Wolverine Blues (Take 2) (Jelly Roll Morton Trio) (3:24)
11. Mr. Jelly Lord (Jelly Roll Morton Trio) (2:51)
12. Georgia Swing (Jelly Roll Morton's Red Hot Peppers) (2:28)
13. Kansas City Stomps (Jelly Roll Morton's Red Hot Peppers) (2:53)
14. Shoe Shiner's Drag (Jelly Roll Morton's Red Hot Peppers) (3:20)
15. Boogaboo (Jelly Roll Morton's Red Hot Peppers) (3:18)
16. Sherevport (Take 1) (Jelly Roll Morton's Red Hot Peppers) (3:16)
17. Sherevport (Take 2) (Jelly Roll Morton's Red Hot Peppers) (3:14)
18. Mournful Serenade (Jelly Roll Morton's Red Hot Peppers) (3:27)
19. Red Hot Peppers (Jelly Roll Morton's Red Hot Peppers) (3:09)
20. Deep Creek (Jelly Roll Morton's Red Hot Peppers) (3:32)
21. Pep (Jelly Roll Morton) (2:58)
22. Seattle Hunch (Take 1) (Jelly Roll Morton) (3:12)
23. Seattle Hunch (Take 2) (Jelly Roll Morton) (3:08)
 
Лог создания рипа
Exact Audio Copy V1.0 beta 4 from 7. December 2014
EAC extraction logfile from 28. May 2015, 12:05
Jelly Roll Morton / The Jelly Roll Morton Centennial: His Complete Victor Recordings
Used drive  : HL-DT-STDVD+-RW GH82N   Adapter: 1  ID: 0
Read mode               : Secure
Utilize accurate stream : Yes
Defeat audio cache      : Yes
Make use of C2 pointers : No
Read offset correction                      : 667
Overread into Lead-In and Lead-Out          : No
Fill up missing offset samples with silence : Yes
Delete leading and trailing silent blocks   : No
Null samples used in CRC calculations       : Yes
Used interface                              : Native Win32 interface for Win NT & 2000
Gap handling                                : Appended to previous track
Used output format              : User Defined Encoder
Selected bitrate                : 1024 kBit/s
Quality                         : High
Add ID3 tag                     : No
Command line compressor         : C:\Program Files (x86)\Exact Audio Copy\FLAC\FLAC.EXE
Additional command line options : -6 -V -T "ARTIST=%artist%" -T "TITLE=%title%" -T "ALBUM=%albumtitle%" -T "DATE=%year%" -T "TRACKNUMBER=%tracknr%" -T "GENRE=%genre%" -T "COMMENT=%comment%" -T "BAND=%albuminterpret%" -T "ALBUMARTIST=%albuminterpret%" -T "COMPOSER=%composer%" %haslyrics%--tag-from-file=LYRICS="%lyricsfile%"%haslyrics% -T "DISCNUMBER=%cdnumber%" -T "TOTALDISCS=%totalcds%" -T "TOTALTRACKS=%numtracks%" %hascover%--picture="%coverfile%"%hascover% %source% -o %dest%
TOC of the extracted CD
     Track |   Start  |  Length  | Start sector | End sector
    ---------------------------------------------------------
        1  |  0:00.37 |  3:08.03 |        37    |    14139
        2  |  3:08.40 |  3:13.00 |     14140    |    28614
        3  |  6:21.40 |  3:26.00 |     28615    |    44064
        4  |  9:47.40 |  3:30.15 |     44065    |    59829
        5  | 13:17.55 |  3:14.45 |     59830    |    74424
        6  | 16:32.25 |  3:09.65 |     74425    |    88664
        7  | 19:42.15 |  3:22.27 |     88665    |   103841
        8  | 23:04.42 |  3:25.03 |    103842    |   119219
        9  | 26:29.45 |  3:18.27 |    119220    |   134096
       10  | 29:47.72 |  3:23.60 |    134097    |   149381
       11  | 33:11.57 |  2:51.10 |    149382    |   162216
       12  | 36:02.67 |  2:28.33 |    162217    |   173349
       13  | 38:31.25 |  2:53.20 |    173350    |   186344
       14  | 41:24.45 |  3:20.20 |    186345    |   201364
       15  | 44:44.65 |  3:17.65 |    201365    |   216204
       16  | 48:02.55 |  3:15.57 |    216205    |   230886
       17  | 51:18.37 |  3:14.28 |    230887    |   245464
       18  | 54:32.65 |  3:26.47 |    245465    |   260961
       19  | 57:59.37 |  3:08.60 |    260962    |   275121
       20  | 61:08.22 |  3:31.48 |    275122    |   290994
       21  | 64:39.70 |  2:57.62 |    290995    |   304331
       22  | 67:37.57 |  3:12.28 |    304332    |   318759
       23  | 70:50.10 |  3:07.70 |    318760    |   332854
Track  1
     Filename C:\Rips\Jelly Roll Morton - His Complete Victor Recordings\CD 2\01 Wild Man Blues (Take 1).wav
     Pre-gap length  0:00:02.37
     Peak level 85.0 %
     Extraction speed 1.8 X
     Track quality 100.0 %
     Copy CRC 3E43772C
     Accurately ripped (confidence 3)  [17F490EA]  (AR v2)
     Copy OK
Track  2
     Filename C:\Rips\Jelly Roll Morton - His Complete Victor Recordings\CD 2\02 Wild Man Blues (Take 3).wav
     Pre-gap length  0:00:01.62
     Peak level 52.5 %
     Extraction speed 1.9 X
     Track quality 100.0 %
     Copy CRC E50B828E
     Accurately ripped (confidence 3)  [33018CB1]  (AR v2)
     Copy OK
Track  3
     Filename C:\Rips\Jelly Roll Morton - His Complete Victor Recordings\CD 2\03 Jungle Blues (Take 2).wav
     Pre-gap length  0:00:01.62
     Peak level 82.1 %
     Extraction speed 2.1 X
     Track quality 100.0 %
     Copy CRC B2A9CAB7
     Accurately ripped (confidence 3)  [96EAB455]  (AR v2)
     Copy OK
Track  4
     Filename C:\Rips\Jelly Roll Morton - His Complete Victor Recordings\CD 2\04 Jungle Blues (Take 3).wav
     Pre-gap length  0:00:01.62
     Peak level 67.3 %
     Extraction speed 2.3 X
     Track quality 100.0 %
     Copy CRC 73BC21C2
     Accurately ripped (confidence 3)  [D4D2C906]  (AR v2)
     Copy OK
Track  5
     Filename C:\Rips\Jelly Roll Morton - His Complete Victor Recordings\CD 2\05 Beale Street Blues (Take 1).wav
     Pre-gap length  0:00:01.62
     Peak level 89.3 %
     Extraction speed 2.3 X
     Track quality 100.0 %
     Copy CRC 2EC53A51
     Accurately ripped (confidence 3)  [5E844CE6]  (AR v2)
     Copy OK
Track  6
     Filename C:\Rips\Jelly Roll Morton - His Complete Victor Recordings\CD 2\06 Beale Street Blues (Take 2).wav
     Pre-gap length  0:00:01.62
     Peak level 76.5 %
     Extraction speed 2.1 X
     Track quality 99.9 %
     Copy CRC 6D93009D
     Accurately ripped (confidence 3)  [B156968B]  (AR v2)
     Copy OK
Track  7
     Filename C:\Rips\Jelly Roll Morton - His Complete Victor Recordings\CD 2\07 The Pearls (Take 2).wav
     Pre-gap length  0:00:01.62
     Peak level 78.6 %
     Extraction speed 2.5 X
     Track quality 100.0 %
     Copy CRC 04FFA49F
     Accurately ripped (confidence 3)  [328C9F23]  (AR v2)
     Copy OK
Track  8
     Filename C:\Rips\Jelly Roll Morton - His Complete Victor Recordings\CD 2\08 The Pearls (Take 3).wav
     Pre-gap length  0:00:01.62
     Peak level 93.0 %
     Extraction speed 2.6 X
     Track quality 100.0 %
     Copy CRC 12DDA8B5
     Accurately ripped (confidence 3)  [241735E5]  (AR v2)
     Copy OK
Track  9
     Filename C:\Rips\Jelly Roll Morton - His Complete Victor Recordings\CD 2\09 Wolverine Blues (Take 1).wav
     Pre-gap length  0:00:01.62
     Peak level 90.1 %
     Extraction speed 2.8 X
     Track quality 100.0 %
     Copy CRC E0F92CDF
     Accurately ripped (confidence 3)  [211E43CA]  (AR v2)
     Copy OK
Track 10
     Filename C:\Rips\Jelly Roll Morton - His Complete Victor Recordings\CD 2\10 Wolverine Blues (Take 2).wav
     Pre-gap length  0:00:00.62
     Peak level 97.2 %
     Extraction speed 2.8 X
     Track quality 100.0 %
     Copy CRC 279DCB10
     Accurately ripped (confidence 3)  [BA37EF1B]  (AR v2)
     Copy OK
Track 11
     Filename C:\Rips\Jelly Roll Morton - His Complete Victor Recordings\CD 2\11 Mr. Jelly Lord.wav
     Pre-gap length  0:00:00.57
     Peak level 78.8 %
     Extraction speed 2.9 X
     Track quality 100.0 %
     Copy CRC 8AE2BB1A
     Accurately ripped (confidence 3)  [FD2E8ED2]  (AR v2)
     Copy OK
Track 12
     Filename C:\Rips\Jelly Roll Morton - His Complete Victor Recordings\CD 2\12 Georgia Swing.wav
     Pre-gap length  0:00:01.62
     Peak level 77.0 %
     Extraction speed 2.9 X
     Track quality 100.0 %
     Copy CRC 840069FF
     Accurately ripped (confidence 3)  [9FCA71BB]  (AR v2)
     Copy OK
Track 13
     Filename C:\Rips\Jelly Roll Morton - His Complete Victor Recordings\CD 2\13 Kansas City Stomps.wav
     Pre-gap length  0:00:01.62
     Peak level 93.9 %
     Extraction speed 2.5 X
     Track quality 99.9 %
     Copy CRC 6113B77B
     Accurately ripped (confidence 3)  [64D2F90B]  (AR v2)
     Copy OK
Track 14
     Filename C:\Rips\Jelly Roll Morton - His Complete Victor Recordings\CD 2\14 Shoe Shiner's Drag.wav
     Pre-gap length  0:00:01.62
     Peak level 92.0 %
     Extraction speed 3.2 X
     Track quality 100.0 %
     Copy CRC 448ABD47
     Accurately ripped (confidence 3)  [B3E3D359]  (AR v2)
     Copy OK
Track 15
     Filename C:\Rips\Jelly Roll Morton - His Complete Victor Recordings\CD 2\15 Boogaboo.wav
     Pre-gap length  0:00:01.62
     Peak level 84.5 %
     Extraction speed 2.8 X
     Track quality 99.9 %
     Copy CRC 20C24F42
     Accurately ripped (confidence 3)  [BE66D536]  (AR v2)
     Copy OK
Track 16
     Filename C:\Rips\Jelly Roll Morton - His Complete Victor Recordings\CD 2\16 Sherevport (Take 1).wav
     Pre-gap length  0:00:01.62
     Peak level 90.5 %
     Extraction speed 3.3 X
     Track quality 100.0 %
     Copy CRC 0BABC3C9
     Accurately ripped (confidence 3)  [D8AB2FC6]  (AR v2)
     Copy OK
Track 17
     Filename C:\Rips\Jelly Roll Morton - His Complete Victor Recordings\CD 2\17 Sherevport (Take 2).wav
     Pre-gap length  0:00:01.62
     Peak level 95.1 %
     Extraction speed 3.4 X
     Track quality 100.0 %
     Copy CRC 2FAFE84B
     Accurately ripped (confidence 3)  [B93E09FE]  (AR v2)
     Copy OK
Track 18
     Filename C:\Rips\Jelly Roll Morton - His Complete Victor Recordings\CD 2\18 Mournful Serenade.wav
     Pre-gap length  0:00:01.62
     Peak level 68.3 %
     Extraction speed 3.5 X
     Track quality 100.0 %
     Copy CRC 377B02B5
     Accurately ripped (confidence 3)  [62653756]  (AR v2)
     Copy OK
Track 19
     Filename C:\Rips\Jelly Roll Morton - His Complete Victor Recordings\CD 2\19 Red Hot Peppers.wav
     Pre-gap length  0:00:01.62
     Peak level 70.7 %
     Extraction speed 3.5 X
     Track quality 100.0 %
     Copy CRC 98D9D862
     Accurately ripped (confidence 3)  [2FF326B7]  (AR v2)
     Copy OK
Track 20
     Filename C:\Rips\Jelly Roll Morton - His Complete Victor Recordings\CD 2\20 Deep Creek.wav
     Pre-gap length  0:00:01.62
     Peak level 92.5 %
     Extraction speed 3.7 X
     Track quality 100.0 %
     Copy CRC CB059C72
     Accurately ripped (confidence 3)  [230540D1]  (AR v2)
     Copy OK
Track 21
     Filename C:\Rips\Jelly Roll Morton - His Complete Victor Recordings\CD 2\21 Pep.wav
     Pre-gap length  0:00:01.62
     Peak level 57.3 %
     Extraction speed 1.6 X
     Track quality 99.6 %
     Copy CRC 07567ED4
     Accurately ripped (confidence 3)  [E0A8F9EA]  (AR v2)
     Copy OK
Track 22
     Filename C:\Rips\Jelly Roll Morton - His Complete Victor Recordings\CD 2\22 Seattle Hunch (Take 1).wav
     Pre-gap length  0:00:01.62
     Peak level 67.1 %
     Extraction speed 3.8 X
     Track quality 100.0 %
     Copy CRC A46A10E0
     Accurately ripped (confidence 3)  [93BBA7F6]  (AR v2)
     Copy OK
Track 23
     Filename C:\Rips\Jelly Roll Morton - His Complete Victor Recordings\CD 2\23 Seattle Hunch (Take 2).wav
     Pre-gap length  0:00:01.62
     Peak level 70.5 %
     Extraction speed 3.3 X
     Track quality 99.9 %
     Copy CRC 4A76FF42
     Accurately ripped (confidence 3)  [21DA5746]  (AR v2)
     Copy OK
All tracks accurately ripped
No errors occurred
End of status report
---- CUETools DB Plugin V2.1.4
[CTDB TOCID: IYIBkI8XqMupyku.K8uGDonX.CE-] disk not present in database
Submit result: IYIBkI8XqMupyku.K8uGDonX.CE- has been uploaded
==== Log checksum E2C8DF45A11392C5C791A66CF790B4CC5D6B4AA21C4A2F89CE175162A0521091 ====
 
Disc 3 [62:46]
01. Frances (Jelly Roll Morton) (3:05)
02. Freakish (Take 1) (Jelly Roll Morton) (2:57)
03. Freakish (Take 2) (Jelly Roll Morton) (2:58)
04. Burnin' The Iceberg (Take 1) (Jelly Roll Morton And His Orchestra) (3:03)
05. Burnin' The Iceberg (Take 2) (Jelly Roll Morton And His Orchestra) (3:02)
06. Courthouse Bump (Take 1) (Jelly Roll Morton And His Orchestra) (3:02)
07. Courthouse Bump (Take 2) (Jelly Roll Morton And His Orchestra) (3:01)
08. Pretty Lil (Take 1) (Jelly Roll Morton And His Orchestra) (3:12)
09. Pretty Lil (Take 2) (Jelly Roll Morton And His Orchestra) (3:13)
10. Sweet Anita Mine (Take 1) (Jelly Roll Morton And His Orchestra) (2:45)
11. Sweet Anita Mine (Take 2) (Jelly Roll Morton And His Orchestra) (2:45)
12. New Orleans Bump (Take 1) (Jelly Roll Morton And His Orchestra) (3:31)
13. New Orleans Bump (Take 2) (Jelly Roll Morton And His Orchestra) (3:22)
14. Down My Way (Jelly Roll Morton And His Orchestra) (3:18)
15. Try Me Out (Jelly Roll Morton And His Orchestra) (2:31)
16. Tank Town Bump (Take 1) (Jelly Roll Morton And His Orchestra) (3:11)
17. Tank Town Bump (Take 2) (Jelly Roll Morton And His Orchestra) (3:11)
18. Sweet Peter (Take 1) (Jelly Roll Morton's Red Hot Peppers) (2:48)
19. Sweet Peter (Take 2) (Jelly Roll Morton's Red Hot Peppers) (2:57)
20. Jersey Joe (Take 1) (Jelly Roll Morton's Red Hot Peppers) (2:24)
21. Jersey Joe (Take 2) (Jelly Roll Morton's Red Hot Peppers) (2:30)
 
Лог создания рипа
Exact Audio Copy V1.0 beta 4 from 7. December 2014
EAC extraction logfile from 28. May 2015, 12:41
Jelly Roll Morton / The Jelly Roll Morton Centennial: His Complete Victor Recordings
Used drive  : HL-DT-STDVD+-RW GH82N   Adapter: 1  ID: 0
Read mode               : Secure
Utilize accurate stream : Yes
Defeat audio cache      : Yes
Make use of C2 pointers : No
Read offset correction                      : 667
Overread into Lead-In and Lead-Out          : No
Fill up missing offset samples with silence : Yes
Delete leading and trailing silent blocks   : No
Null samples used in CRC calculations       : Yes
Used interface                              : Native Win32 interface for Win NT & 2000
Gap handling                                : Appended to previous track
Used output format              : User Defined Encoder
Selected bitrate                : 1024 kBit/s
Quality                         : High
Add ID3 tag                     : No
Command line compressor         : C:\Program Files (x86)\Exact Audio Copy\FLAC\FLAC.EXE
Additional command line options : -6 -V -T "ARTIST=%artist%" -T "TITLE=%title%" -T "ALBUM=%albumtitle%" -T "DATE=%year%" -T "TRACKNUMBER=%tracknr%" -T "GENRE=%genre%" -T "COMMENT=%comment%" -T "BAND=%albuminterpret%" -T "ALBUMARTIST=%albuminterpret%" -T "COMPOSER=%composer%" %haslyrics%--tag-from-file=LYRICS="%lyricsfile%"%haslyrics% -T "DISCNUMBER=%cdnumber%" -T "TOTALDISCS=%totalcds%" -T "TOTALTRACKS=%numtracks%" %hascover%--picture="%coverfile%"%hascover% %source% -o %dest%
TOC of the extracted CD
     Track |   Start  |  Length  | Start sector | End sector
    ---------------------------------------------------------
        1  |  0:00.37 |  3:05.10 |        37    |    13921
        2  |  3:05.47 |  2:57.30 |     13922    |    27226
        3  |  6:03.02 |  2:58.03 |     27227    |    40579
        4  |  9:01.05 |  3:03.07 |     40580    |    54311
        5  | 12:04.12 |  3:01.58 |     54312    |    67944
        6  | 15:05.70 |  3:02.20 |     67945    |    81614
        7  | 18:08.15 |  3:00.42 |     81615    |    95156
        8  | 21:08.57 |  3:12.13 |     95157    |   109569
        9  | 24:20.70 |  3:12.72 |    109570    |   124041
       10  | 27:33.67 |  2:44.65 |    124042    |   136406
       11  | 30:18.57 |  2:45.33 |    136407    |   148814
       12  | 33:04.15 |  3:30.67 |    148815    |   164631
       13  | 36:35.07 |  3:21.43 |    164632    |   179749
       14  | 39:56.50 |  3:17.62 |    179750    |   194586
       15  | 43:14.37 |  2:30.73 |    194587    |   205909
       16  | 45:45.35 |  3:11.10 |    205910    |   220244
       17  | 48:56.45 |  3:10.47 |    220245    |   234541
       18  | 52:07.17 |  2:48.05 |    234542    |   247146
       19  | 54:55.22 |  2:56.45 |    247147    |   260391
       20  | 57:51.67 |  2:24.35 |    260392    |   271226
       21  | 60:16.27 |  2:29.68 |    271227    |   282469
Track  1
     Filename C:\Rips\Jelly Roll Morton - His Complete Victor Recordings\CD 3\01 Frances.wav
     Pre-gap length  0:00:02.37
     Peak level 87.2 %
     Extraction speed 1.7 X
     Track quality 100.0 %
     Copy CRC DCEE5B13
     Accurately ripped (confidence 4)  [357946CB]  (AR v2)
     Copy OK
Track  2
     Filename C:\Rips\Jelly Roll Morton - His Complete Victor Recordings\CD 3\02 Freakish (Take 1).wav
     Pre-gap length  0:00:01.62
     Peak level 89.9 %
     Extraction speed 1.9 X
     Track quality 100.0 %
     Copy CRC EE30C1F8
     Accurately ripped (confidence 4)  [5605422B]  (AR v2)
     Copy OK
Track  3
     Filename C:\Rips\Jelly Roll Morton - His Complete Victor Recordings\CD 3\03 Freakish (Take 2).wav
     Pre-gap length  0:00:01.62
     Peak level 89.8 %
     Extraction speed 2.0 X
     Track quality 100.0 %
     Copy CRC 5C9CBF53
     Accurately ripped (confidence 4)  [1F23B117]  (AR v2)
     Copy OK
Track  4
     Filename C:\Rips\Jelly Roll Morton - His Complete Victor Recordings\CD 3\04 Burnin' The Iceberg (Take 1).wav
     Pre-gap length  0:00:01.62
     Peak level 99.1 %
     Extraction speed 2.2 X
     Track quality 100.0 %
     Copy CRC ED517844
     Accurately ripped (confidence 4)  [A23967AF]  (AR v2)
     Copy OK
Track  5
     Filename C:\Rips\Jelly Roll Morton - His Complete Victor Recordings\CD 3\05 Burnin' The Iceberg (Take 2).wav
     Pre-gap length  0:00:01.62
     Peak level 59.4 %
     Extraction speed 2.2 X
     Track quality 100.0 %
     Copy CRC 48FFE709
     Accurately ripped (confidence 4)  [47D7A730]  (AR v2)
     Copy OK
Track  6
     Filename C:\Rips\Jelly Roll Morton - His Complete Victor Recordings\CD 3\06 Courthouse Bump (Take 1).wav
     Pre-gap length  0:00:01.62
     Peak level 85.7 %
     Extraction speed 2.0 X
     Track quality 99.9 %
     Copy CRC 820128A2
     Accurately ripped (confidence 4)  [59D4F67E]  (AR v2)
     Copy OK
Track  7
     Filename C:\Rips\Jelly Roll Morton - His Complete Victor Recordings\CD 3\07 Courthouse Bump (Take 2).wav
     Pre-gap length  0:00:01.62
     Peak level 80.9 %
     Extraction speed 2.1 X
     Track quality 99.9 %
     Copy CRC D406DFB0
     Accurately ripped (confidence 4)  [0E392420]  (AR v2)
     Copy OK
Track  8
     Filename C:\Rips\Jelly Roll Morton - His Complete Victor Recordings\CD 3\08 Pretty Lil (Take 1).wav
     Pre-gap length  0:00:01.62
     Peak level 83.6 %
     Extraction speed 2.6 X
     Track quality 100.0 %
     Copy CRC F9603D9F
     Accurately ripped (confidence 4)  [ACF83AAB]  (AR v2)
     Copy OK
Track  9
     Filename C:\Rips\Jelly Roll Morton - His Complete Victor Recordings\CD 3\09 Pretty Lil (Take 2).wav
     Pre-gap length  0:00:01.62
     Peak level 87.4 %
     Extraction speed 2.7 X
     Track quality 100.0 %
     Copy CRC BB1D8301
     Accurately ripped (confidence 4)  [06610173]  (AR v2)
     Copy OK
Track 10
     Filename C:\Rips\Jelly Roll Morton - His Complete Victor Recordings\CD 3\10 Sweet Anita Mine (Take 1).wav
     Pre-gap length  0:00:01.62
     Peak level 71.8 %
     Extraction speed 2.7 X
     Track quality 100.0 %
     Copy CRC 43735645
     Accurately ripped (confidence 4)  [B007A24F]  (AR v2)
     Copy OK
Track 11
     Filename C:\Rips\Jelly Roll Morton - His Complete Victor Recordings\CD 3\11 Sweet Anita Mine (Take 2).wav
     Pre-gap length  0:00:01.62
     Peak level 60.0 %
     Extraction speed 2.8 X
     Track quality 100.0 %
     Copy CRC 83C42CA5
     Accurately ripped (confidence 4)  [B3E95072]  (AR v2)
     Copy OK
Track 12
     Filename C:\Rips\Jelly Roll Morton - His Complete Victor Recordings\CD 3\12 New Orleans Bump (Take 1).wav
     Pre-gap length  0:00:01.62
     Peak level 82.4 %
     Extraction speed 3.1 X
     Track quality 100.0 %
     Copy CRC 9D1A28F2
     Accurately ripped (confidence 4)  [4EAA9602]  (AR v2)
     Copy OK
Track 13
     Filename C:\Rips\Jelly Roll Morton - His Complete Victor Recordings\CD 3\13 New Orleans Bump (Take 2).wav
     Pre-gap length  0:00:01.62
     Peak level 67.5 %
     Extraction speed 3.1 X
     Track quality 100.0 %
     Copy CRC 186559EF
     Accurately ripped (confidence 4)  [89606956]  (AR v2)
     Copy OK
Track 14
     Filename C:\Rips\Jelly Roll Morton - His Complete Victor Recordings\CD 3\14 Down My Way.wav
     Pre-gap length  0:00:01.62
     Peak level 84.5 %
     Extraction speed 3.1 X
     Track quality 100.0 %
     Copy CRC D350CD3A
     Accurately ripped (confidence 4)  [A50A61D9]  (AR v2)
     Copy OK
Track 15
     Filename C:\Rips\Jelly Roll Morton - His Complete Victor Recordings\CD 3\15 Try Me Out.wav
     Pre-gap length  0:00:01.62
     Peak level 84.6 %
     Extraction speed 3.0 X
     Track quality 100.0 %
     Copy CRC BD901CAE
     Accurately ripped (confidence 4)  [D696AF4C]  (AR v2)
     Copy OK
Track 16
     Filename C:\Rips\Jelly Roll Morton - His Complete Victor Recordings\CD 3\16 Tank Town Bump (Take 1).wav
     Pre-gap length  0:00:01.62
     Peak level 94.6 %
     Extraction speed 3.3 X
     Track quality 100.0 %
     Copy CRC A2B4AB11
     Accurately ripped (confidence 4)  [3900557F]  (AR v2)
     Copy OK
Track 17
     Filename C:\Rips\Jelly Roll Morton - His Complete Victor Recordings\CD 3\17 Tank Town Bump (Take 2).wav
     Pre-gap length  0:00:01.62
     Peak level 96.3 %
     Extraction speed 3.4 X
     Track quality 100.0 %
     Copy CRC 9107D236
     Accurately ripped (confidence 4)  [1540AC3B]  (AR v2)
     Copy OK
Track 18
     Filename C:\Rips\Jelly Roll Morton - His Complete Victor Recordings\CD 3\18 Sweet Peter (Take 1).wav
     Pre-gap length  0:00:01.62
     Peak level 56.9 %
     Extraction speed 3.4 X
     Track quality 100.0 %
     Copy CRC 79CC9E04
     Accurately ripped (confidence 4)  [2F21DDF4]  (AR v2)
     Copy OK
Track 19
     Filename C:\Rips\Jelly Roll Morton - His Complete Victor Recordings\CD 3\19 Sweet Peter (Take 2).wav
     Pre-gap length  0:00:01.62
     Peak level 87.9 %
     Extraction speed 2.9 X
     Track quality 99.9 %
     Copy CRC 42B2DD2D
     Accurately ripped (confidence 4)  [FD605F47]  (AR v2)
     Copy OK
Track 20
     Filename C:\Rips\Jelly Roll Morton - His Complete Victor Recordings\CD 3\20 Jersey Joe (Take 1).wav
     Pre-gap length  0:00:01.61
     Peak level 86.1 %
     Extraction speed 3.4 X
     Track quality 100.0 %
     Copy CRC 9107818E
     Accurately ripped (confidence 4)  [DC9DAD25]  (AR v2)
     Copy OK
Track 21
     Filename C:\Rips\Jelly Roll Morton - His Complete Victor Recordings\CD 3\21 Jersey Joe (Take 2).wav
     Pre-gap length  0:00:01.62
     Peak level 83.1 %
     Extraction speed 3.5 X
     Track quality 100.0 %
     Copy CRC CEB868CB
     Accurately ripped (confidence 4)  [B4A06005]  (AR v2)
     Copy OK
All tracks accurately ripped
No errors occurred
End of status report
---- CUETools DB Plugin V2.1.4
[CTDB TOCID: m.qRLFnfRw1aRi.TvtfKCiszdmY-] found
Submit result: m.qRLFnfRw1aRi.TvtfKCiszdmY- has been confirmed
Track | CTDB Status
  1   | (1/1) Accurately ripped
  2   | (1/1) Accurately ripped
  3   | (1/1) Accurately ripped
  4   | (1/1) Accurately ripped
  5   | (1/1) Accurately ripped
  6   | (1/1) Accurately ripped
  7   | (1/1) Accurately ripped
  8   | (1/1) Accurately ripped
  9   | (1/1) Accurately ripped
 10   | (1/1) Accurately ripped
 11   | (1/1) Accurately ripped
 12   | (1/1) Accurately ripped
 13   | (1/1) Accurately ripped
 14   | (1/1) Accurately ripped
 15   | (1/1) Accurately ripped
 16   | (1/1) Accurately ripped
 17   | (1/1) Accurately ripped
 18   | (1/1) Accurately ripped
 19   | (1/1) Accurately ripped
 20   | (1/1) Accurately ripped
 21   | (1/1) Accurately ripped
==== Log checksum 9FA71E0B6DAC9878D67E5F55239F576BCFFCA9EEC881CC63AB6DB37026EA1147 ====
 
Disc 4 [67:09]
01. Mississippi Mildred (Take 1) (Jelly Roll Morton's Red Hot Peppers) (3:23)
02. Mississippi Mildred (Take 2) (Jelly Roll Morton's Red Hot Peppers) (2:56)
03. Mint Julep (Jelly Roll Morton's Red Hot Peppers) (3:04)
04. Smilin' The Blues Away (Jelly Roll Morton Trio) (2:56)
05. Turtle Twist (Jelly Roll Morton Trio) (3:10)
06. My Little Dixe Home (Jelly Roll Morton Trio) (2:59)
07. That's Like It Ought To Be (Jelly Roll Morton Trio) (2:57)
08. Each Day (Take 1) (Jelly Roll Morton's Red Hot Peppers) (2:55)
09. Each Day (Take 2) (Jelly Roll Morton's Red Hot Peppers) (3:03)
10. If Someone Would Only Love Me (Jelly Roll Morton's Red Hot Peppers) (3:39)
11. That'll Never Do (Jelly Roll Morton's Red Hot Peppers) (2:55)
12. I'm Looking For A Little Bluebird (Jelly Roll Morton's Red Hot Peppers) (2:52)
13. Little Lawrence (Jelly Roll Morton's Red Hot Peppers) (2:56)
14. Harmony Blues (Jelly Roll Morton's Red Hot Peppers) (3:30)
15. Fussy Mabel (Jelly Roll Morton's Red Hot Peppers) (3:16)
16. Ponchatrain (Jelly Roll Morton's Red Hot Peppers) (2:56)
17. Oil Well (Take 1) (Jelly Roll Morton's Red Hot Peppers) (2:41)
18. Oil Well (Take 2) (Jelly Roll Morton's Red Hot Peppers) (3:04)
19. Load Of Coal (Take 1) (Jelly Roll Morton's Red Hot Peppers) (2:59)
20. Load Of Coal (Take 2) (Jelly Roll Morton's Red Hot Peppers) (2:58)
21. Crazy Chords (Take 1) (Jelly Roll Morton's Red Hot Peppers) (3:04)
22. Crazy Chords (Take 2) (Jelly Roll Morton's Red Hot Peppers) (2:55)
 
Лог создания рипа
Exact Audio Copy V1.0 beta 4 from 7. December 2014
EAC extraction logfile from 28. May 2015, 13:18
Jelly Roll Morton / The Jelly Roll Morton Centennial: His Complete Victor Recordings
Used drive  : HL-DT-STDVD+-RW GH82N   Adapter: 1  ID: 0
Read mode               : Secure
Utilize accurate stream : Yes
Defeat audio cache      : Yes
Make use of C2 pointers : No
Read offset correction                      : 667
Overread into Lead-In and Lead-Out          : No
Fill up missing offset samples with silence : Yes
Delete leading and trailing silent blocks   : No
Null samples used in CRC calculations       : Yes
Used interface                              : Native Win32 interface for Win NT & 2000
Gap handling                                : Appended to previous track
Used output format              : User Defined Encoder
Selected bitrate                : 1024 kBit/s
Quality                         : High
Add ID3 tag                     : No
Command line compressor         : C:\Program Files (x86)\Exact Audio Copy\FLAC\FLAC.EXE
Additional command line options : -6 -V -T "ARTIST=%artist%" -T "TITLE=%title%" -T "ALBUM=%albumtitle%" -T "DATE=%year%" -T "TRACKNUMBER=%tracknr%" -T "GENRE=%genre%" -T "COMMENT=%comment%" -T "BAND=%albuminterpret%" -T "ALBUMARTIST=%albuminterpret%" -T "COMPOSER=%composer%" %haslyrics%--tag-from-file=LYRICS="%lyricsfile%"%haslyrics% -T "DISCNUMBER=%cdnumber%" -T "TOTALDISCS=%totalcds%" -T "TOTALTRACKS=%numtracks%" %hascover%--picture="%coverfile%"%hascover% %source% -o %dest%
TOC of the extracted CD
     Track |   Start  |  Length  | Start sector | End sector
    ---------------------------------------------------------
        1  |  0:00.37 |  3:22.53 |        37    |    15239
        2  |  3:23.15 |  2:56.27 |     15240    |    28466
        3  |  6:19.42 |  3:04.13 |     28467    |    42279
        4  |  9:23.55 |  2:55.70 |     42280    |    55474
        5  | 12:19.50 |  3:09.42 |     55475    |    69691
        6  | 15:29.17 |  2:58.40 |     69692    |    83081
        7  | 18:27.57 |  2:57.05 |     83082    |    96361
        8  | 21:24.62 |  2:54.53 |     96362    |   109464
        9  | 24:19.40 |  3:03.17 |    109465    |   123206
       10  | 27:22.57 |  3:39.13 |    123207    |   139644
       11  | 31:01.70 |  2:55.30 |    139645    |   152799
       12  | 33:57.25 |  2:51.70 |    152800    |   165694
       13  | 36:49.20 |  2:56.12 |    165695    |   178906
       14  | 39:45.32 |  3:29.68 |    178907    |   194649
       15  | 43:15.25 |  3:16.32 |    194650    |   209381
       16  | 46:31.57 |  2:56.28 |    209382    |   222609
       17  | 49:28.10 |  2:40.47 |    222610    |   234656
       18  | 52:08.57 |  3:04.28 |    234657    |   248484
       19  | 55:13.10 |  2:58.65 |    248485    |   261899
       20  | 58:12.00 |  2:58.32 |    261900    |   275281
       21  | 61:10.32 |  3:03.43 |    275282    |   289049
       22  | 64:14.00 |  2:55.15 |    289050    |   302189
Track  1
     Filename C:\Rips\Jelly Roll Morton - His Complete Victor Recordings\CD 4\01 Mississippi Mildred (Take 1).wav
     Pre-gap length  0:00:02.37
     Peak level 88.2 %
     Extraction speed 1.8 X
     Track quality 100.0 %
     Copy CRC D7771F51
     Accurately ripped (confidence 5)  [B8A7219D]  (AR v2)
     Copy OK
Track  2
     Filename C:\Rips\Jelly Roll Morton - His Complete Victor Recordings\CD 4\02 Mississippi Mildred (Take 2).wav
     Pre-gap length  0:00:01.62
     Peak level 84.7 %
     Extraction speed 1.9 X
     Track quality 100.0 %
     Copy CRC 2A32282A
     Accurately ripped (confidence 5)  [4B7834D1]  (AR v2)
     Copy OK
Track  3
     Filename C:\Rips\Jelly Roll Morton - His Complete Victor Recordings\CD 4\03 Mint Julep.wav
     Pre-gap length  0:00:01.62
     Peak level 87.8 %
     Extraction speed 2.0 X
     Track quality 100.0 %
     Copy CRC 150BC6A7
     Accurately ripped (confidence 5)  [D46BE5A5]  (AR v2)
     Copy OK
Track  4
     Filename C:\Rips\Jelly Roll Morton - His Complete Victor Recordings\CD 4\04 Smilin' The Blues Away.wav
     Pre-gap length  0:00:01.61
     Peak level 95.7 %
     Extraction speed 1.8 X
     Track quality 99.9 %
     Copy CRC D561EFAE
     Accurately ripped (confidence 5)  [1D11A598]  (AR v2)
     Copy OK
Track  5
     Filename C:\Rips\Jelly Roll Morton - His Complete Victor Recordings\CD 4\05 Turtle Twist.wav
     Pre-gap length  0:00:01.62
     Peak level 64.9 %
     Extraction speed 1.9 X
     Track quality 99.9 %
     Copy CRC 8CDD909A
     Accurately ripped (confidence 5)  [E0AEF2A0]  (AR v2)
     Copy OK
Track  6
     Filename C:\Rips\Jelly Roll Morton - His Complete Victor Recordings\CD 4\06 My Little Dixe Home.wav
     Pre-gap length  0:00:00.62
     Peak level 76.2 %
     Extraction speed 2.3 X
     Track quality 100.0 %
     Copy CRC 7875A688
     Accurately ripped (confidence 5)  [FEED7DB5]  (AR v2)
     Copy OK
Track  7
     Filename C:\Rips\Jelly Roll Morton - His Complete Victor Recordings\CD 4\07 That's Like It Ought To Be.wav
     Pre-gap length  0:00:01.60
     Peak level 97.8 %
     Extraction speed 2.5 X
     Track quality 100.0 %
     Copy CRC 60B9501F
     Accurately ripped (confidence 5)  [45366806]  (AR v2)
     Copy OK
Track  8
     Filename C:\Rips\Jelly Roll Morton - His Complete Victor Recordings\CD 4\08 Each Day (Take 1).wav
     Pre-gap length  0:00:01.61
     Peak level 79.5 %
     Extraction speed 2.6 X
     Track quality 100.0 %
     Copy CRC 9DAB9BC3
     Accurately ripped (confidence 5)  [807E69AD]  (AR v2)
     Copy OK
Track  9
     Filename C:\Rips\Jelly Roll Morton - His Complete Victor Recordings\CD 4\09 Each Day (Take 2).wav
     Pre-gap length  0:00:01.63
     Peak level 81.2 %
     Extraction speed 2.3 X
     Track quality 99.9 %
     Copy CRC 0FF03438
     Accurately ripped (confidence 5)  [B94C73AC]  (AR v2)
     Copy OK
Track 10
     Filename C:\Rips\Jelly Roll Morton - His Complete Victor Recordings\CD 4\10 If Someone Would Only Love Me.wav
     Pre-gap length  0:00:01.60
     Peak level 72.1 %
     Extraction speed 2.9 X
     Track quality 100.0 %
     Copy CRC 52F98EB1
     Accurately ripped (confidence 5)  [4785C023]  (AR v2)
     Copy OK
Track 11
     Filename C:\Rips\Jelly Roll Morton - His Complete Victor Recordings\CD 4\11
 
Disc 5 [65:50]

01. Primrose Stomp (Take 1) (Jelly Roll Morton's Red Hot Peppers) (3:03)
02. Primrose Stomp (Take 2) (Jelly Roll Morton's Red Hot Peppers) (3:04)
03. Low Gravy (Jelly Roll Morton's Red Hot Peppers) (2:45)
04. Strokin' Away (Take 1) (Jelly Roll Morton's Red Hot Peppers) (2:55)
05. Strokin' Away (Take 2) (Jelly Roll Morton's Red Hot Peppers) (2:57)
06. Blue Blood Blues (Take 1) (Jelly Roll Morton's Red Hot Peppers) (3:02)
07. Blue Blood Blues (Take 2) (Jelly Roll Morton's Red Hot Peppers) (3:02)
08. Mushmouth Shuffle (Jelly Roll Morton's Red Hot Peppers) (2:43)
09. Gambling Jack (Take 1) (Jelly Roll Morton's Red Hot Peppers) (2:46)
10. Gambling Jack (Take 2) (Jelly Roll Morton's Red Hot Peppers) (2:52)
11. Fickle Fay Creep (Jelly Roll Morton's Red Hot Peppers) (3:14)
12. Oh Didn't He Ramble (Take 1) (Jelly Roll Morton's New Orleans Jazzmen) (3:10)
13. Oh Didn't He Ramble (Take 2) (Jelly Roll Morton's New Orleans Jazzmen) (3:03)
14. High Society (Jelly Roll Morton's New Orleans Jazzmen) (2:47)
15. I Thought I Heard Buddy Bolden Say (Jelly Roll Morton's New Orleans Jazzmen) (3:12)
16. Winin' Boy Blues (Take 1) (Jelly Roll Morton's New Orleans Jazzmen) (3:10)
17. Winin' Boy Blues (Take 2) (Jelly Roll Morton's New Orleans Jazzmen) (3:07)
18. Climax Rag (Take 1) (Jelly Roll Morton's New Orleans Jazzmen) (2:27)
19. Climax Rag (Take 2) (Jelly Roll Morton's New Orleans Jazzmen) (2:26)
20. Don't You Leave Me Here (Take 1) (Jelly Roll Morton's New Orleans Jazzmen) (2:23)
21. Don't You Leave Me Here (Take 2) (Jelly Roll Morton's New Orleans Jazzmen) (2:36)
22. West End Blues (Jelly Roll Morton's New Orleans Jazzmen) (2:51)
23. Ballin' The Jack (Jelly Roll Morton's New Orleans Jazzmen) (2:14)

 
Лог создания рипа
Exact Audio Copy V1.0 beta 4 from 7. December 2014
EAC extraction logfile from 28. May 2015, 13:53
Jelly Roll Morton / The Jelly Roll Morton Centennial: His Complete Victor Recordings
Used drive  : HL-DT-STDVD+-RW GH82N   Adapter: 1  ID: 0
Read mode               : Secure
Utilize accurate stream : Yes
Defeat audio cache      : Yes
Make use of C2 pointers : No
Read offset correction                      : 667
Overread into Lead-In and Lead-Out          : No
Fill up missing offset samples with silence : Yes
Delete leading and trailing silent blocks   : No
Null samples used in CRC calculations       : Yes
Used interface                              : Native Win32 interface for Win NT & 2000
Gap handling                                : Appended to previous track
Used output format              : User Defined Encoder
Selected bitrate                : 1024 kBit/s
Quality                         : High
Add ID3 tag                     : No
Command line compressor         : C:\Program Files (x86)\Exact Audio Copy\FLAC\FLAC.EXE
Additional command line options : -6 -V -T "ARTIST=%artist%" -T "TITLE=%title%" -T "ALBUM=%albumtitle%" -T "DATE=%year%" -T "TRACKNUMBER=%tracknr%" -T "GENRE=%genre%" -T "COMMENT=%comment%" -T "BAND=%albuminterpret%" -T "ALBUMARTIST=%albuminterpret%" -T "COMPOSER=%composer%" %haslyrics%--tag-from-file=LYRICS="%lyricsfile%"%haslyrics% -T "DISCNUMBER=%cdnumber%" -T "TOTALDISCS=%totalcds%" -T "TOTALTRACKS=%numtracks%" %hascover%--picture="%coverfile%"%hascover% %source% -o %dest%
TOC of the extracted CD
     Track |   Start  |  Length  | Start sector | End sector
    ---------------------------------------------------------
        1  |  0:00.37 |  3:02.68 |        37    |    13754
        2  |  3:03.30 |  3:03.65 |     13755    |    27544
        3  |  6:07.20 |  2:44.47 |     27545    |    39891
        4  |  8:51.67 |  2:54.38 |     39892    |    52979
        5  | 11:46.30 |  2:57.10 |     52980    |    66264
        6  | 14:43.40 |  3:02.35 |     66265    |    79949
        7  | 17:46.00 |  3:02.27 |     79950    |    93626
        8  | 20:48.27 |  2:42.70 |     93627    |   105846
        9  | 23:31.22 |  2:45.43 |    105847    |   118264
       10  | 26:16.65 |  2:51.60 |    118265    |   131149
       11  | 29:08.50 |  3:13.62 |    131150    |   145686
       12  | 32:22.37 |  3:10.35 |    145687    |   159971
       13  | 35:32.72 |  3:03.18 |    159972    |   173714
       14  | 38:36.15 |  2:47.20 |    173715    |   186259
       15  | 41:23.35 |  3:12.22 |    186260    |   200681
       16  | 44:35.57 |  3:10.20 |    200682    |   214951
       17  | 47:46.02 |  3:07.35 |    214952    |   229011
       18  | 50:53.37 |  2:27.13 |    229012    |   240049
       19  | 53:20.50 |  2:25.40 |    240050    |   250964
       20  | 55:46.15 |  2:23.27 |    250965    |   261716
       21  | 58:09.42 |  2:36.03 |    261717    |   273419
       22  | 60:45.45 |  2:50.70 |    273420    |   286239
       23  | 63:36.40 |  2:14.07 |    286240    |   296296
Track  1
     Filename C:\Rips\Jelly Roll Morton - His Complete Victor Recordings\CD 5\01 Primrose Stomp (Take 1).wav
     Pre-gap length  0:00:02.37
     Peak level 68.1 %
     Extraction speed 1.5 X
     Track quality 99.9 %
     Copy CRC 2D30636B
     Accurately ripped (confidence 4)  [C86CF6A0]  (AR v2)
     Copy OK
Track  2
     Filename C:\Rips\Jelly Roll Morton - His Complete Victor Recordings\CD 5\02 Primrose Stomp (Take 2).wav
     Pre-gap length  0:00:01.62
     Peak level 65.5 %
     Extraction speed 1.9 X
     Track quality 100.0 %
     Copy CRC 973FC742
     Accurately ripped (confidence 4)  [72445920]  (AR v2)
     Copy OK
Track  3
     Filename C:\Rips\Jelly Roll Morton - His Complete Victor Recordings\CD 5\03 Low Gravy.wav
     Pre-gap length  0:00:01.62
     Peak level 70.2 %
     Extraction speed 1.9 X
     Track quality 100.0 %
     Copy CRC 3CEF7AE8
     Accurately ripped (confidence 4)  [37F8A0BA]  (AR v2)
     Copy OK
Track  4
     Filename C:\Rips\Jelly Roll Morton - His Complete Victor Recordings\CD 5\04 Strokin' Away (Take 1).wav
     Pre-gap length  0:00:01.61
     Peak level 57.8 %
     Extraction speed 2.1 X
     Track quality 100.0 %
     Copy CRC 91F25B8E
     Accurately ripped (confidence 4)  [A9DC3CA8]  (AR v2)
     Copy OK
Track  5
     Filename C:\Rips\Jelly Roll Morton - His Complete Victor Recordings\CD 5\05 Strokin' Away (Take 2).wav
     Pre-gap length  0:00:01.62
     Peak level 79.7 %
     Extraction speed 2.2 X
     Track quality 100.0 %
     Copy CRC EBE19731
     Accurately ripped (confidence 4)  [9E795F4A]  (AR v2)
     Copy OK
Track  6
     Filename C:\Rips\Jelly Roll Morton - His Complete Victor Recordings\CD 5\06 Blue Blood Blues (Take 1).wav
     Pre-gap length  0:00:01.62
     Peak level 80.0 %
     Extraction speed 2.3 X
     Track quality 100.0 %
     Copy CRC B504944A
     Accurately ripped (confidence 4)  [FDB15055]  (AR v2)
     Copy OK
Track  7
     Filename C:\Rips\Jelly Roll Morton - His Complete Victor Recordings\CD 5\07 Blue Blood Blues (Take 2).wav
     Pre-gap length  0:00:01.62
     Peak level 60.5 %
     Extraction speed 2.5 X
     Track quality 100.0 %
     Copy CRC 5439BB92
     Accurately ripped (confidence 4)  [0E909572]  (AR v2)
     Copy OK
Track  8
     Filename C:\Rips\Jelly Roll Morton - His Complete Victor Recordings\CD 5\08 Mushmouth Shuffle.wav
     Pre-gap length  0:00:01.61
     Peak level 57.6 %
     Extraction speed 2.4 X
     Track quality 100.0 %
     Copy CRC 30F9618B
     Accurately ripped (confidence 4)  [32FAA360]  (AR v2)
     Copy OK
Track  9
     Filename C:\Rips\Jelly Roll Morton - His Complete Victor Recordings\CD 5\09 Gambling Jack (Take 1).wav
     Pre-gap length  0:00:01.61
     Peak level 54.6 %
     Extraction speed 2.6 X
     Track quality 100.0 %
     Copy CRC 5A79A848
     Accurately ripped (confidence 4)  [F52F0406]  (AR v2)
     Copy OK
Track 10
     Filename C:\Rips\Jelly Roll Morton - His Complete Victor Recordings\CD 5\10 Gambling Jack (Take 2).wav
     Pre-gap length  0:00:01.61
     Peak level 80.3 %
     Extraction speed 2.7 X
     Track quality 100.0 %
     Copy CRC 717FB608
     Accurately ripped (confidence 4)  [028BDA86]  (AR v2)
     Copy OK
Track 11
     Filename C:\Rips\Jelly Roll Morton - His Complete Victor Recordings\CD 5\11 Fickle Fay Creep.wav
     Pre-gap length  0:00:01.62
     Peak level 70.8 %
     Extraction speed 2.8 X
     Track quality 100.0 %
     Copy CRC EAB0EF71
     Accurately ripped (confidence 4)  [CEFF3BC1]  (AR v2)
     Copy OK
Track 12
     Filename C:\Rips\Jelly Roll Morton - His Complete Victor Recordings\CD 5\12 Oh Didn't He Ramble (Take 1).wav
     Pre-gap length  0:00:01.61
     Peak level 71.3 %
     Extraction speed 2.9 X
     Track quality 100.0 %
     Copy CRC F3AE2B5C
     Accurately ripped (confidence 4)  [072DDFE5]  (AR v2)
     Copy OK
Track 13
     Filename C:\Rips\Jelly Roll Morton - His Complete Victor Recordings\CD 5\13 Oh Didn't He Ramble (Take 2).wav
     Pre-gap length  0:00:01.61
     Peak level 60.7 %
     Extraction speed 2.5 X
     Track quality 99.9 %
     Copy CRC A448923D
     Accurately ripped (confidence 4)  [6B378854]  (AR v2)
     Copy OK
Track 14
     Filename C:\Rips\Jelly Roll Morton - His Complete Victor Recordings\CD 5\14 High Society.wav
     Pre-gap length  0:00:01.62
     Peak level 70.9 %
     Extraction speed 3.0 X
     Track quality 100.0 %
     Copy CRC 3E0946CD
     Accurately ripped (confidence 4)  [4DE50D8E]  (AR v2)
     Copy OK
Track 15
     Filename C:\Rips\Jelly Roll Morton - His Complete Victor Recordings\CD 5\15 I Thought I Heard Buddy Bolden Say.wav
     Pre-gap length  0:00:01.62
     Peak level 75.9 %
     Extraction speed 3.2 X
     Track quality 100.0 %
     Copy CRC 7E56DA1E
     Accurately ripped (confidence 4)  [A20A967F]  (AR v2)
     Copy OK
Track 16
     Filename C:\Rips\Jelly Roll Morton - His Complete Victor Recordings\CD 5\16 Winin' Boy Blues (Take 1).wav
     Pre-gap length  0:00:01.61
     Peak level 58.9 %
     Extraction speed 3.3 X
     Track quality 100.0 %
     Copy CRC 76799A0D
     Accurately ripped (confidence 4)  [D45416F5]  (AR v2)
     Copy OK
Track 17
     Filename C:\Rips\Jelly Roll Morton - His Complete Victor Recordings\CD 5\17 Winin' Boy Blues (Take 2).wav
     Pre-gap length  0:00:01.61
     Peak level 62.0 %
     Extraction speed 3.2 X
     Track quality 100.0 %
     Copy CRC CCBAB12C
     Accurately ripped (confidence 4)  [1719FDF5]  (AR v2)
     Copy OK
Track 18
     Filename C:\Rips\Jelly Roll Morton - His Complete Victor Recordings\CD 5\18 Climax Rag (Take 1).wav
     Pre-gap length  0:00:01.61
     Peak level 67.7 %
     Extraction speed 3.2 X
     Track quality 100.0 %
     Copy CRC 51D4423A
     Accurately ripped (confidence 4)  [BF52CD4F]  (AR v2)
     Copy OK
Track 19
     Filename C:\Rips\Jelly Roll Morton - His Complete Victor Recordings\CD 5\19 Climax Rag (Take 2).wav
     Pre-gap length  0:00:01.62
     Peak level 54.5 %
     Extraction speed 3.3 X
     Track quality 100.0 %
     Copy CRC 169BB889
     Accurately ripped (confidence 4)  [A987D296]  (AR v2)
     Copy OK
Track 20
     Filename C:\Rips\Jelly Roll Morton - His Complete Victor Recordings\CD 5\20 Don't You Leave Me Here (Take 1).wav
     Pre-gap length  0:00:01.62
     Peak level 83.0 %
     Extraction speed 3.2 X
     Track quality 100.0 %
     Copy CRC 8C291AA9
     Accurately ripped (confidence 4)  [39F7DEBF]  (AR v2)
     Copy OK
Track 21
     Filename C:\Rips\Jelly Roll Morton - His Complete Victor Recordings\CD 5\21 Don't You Leave Me Here (Take 2).wav
     Pre-gap length  0:00:01.61
     Peak level 72.9 %
     Extraction speed 2.8 X
     Track quality 99.9 %
     Copy CRC 753756C4
     Accurately ripped (confidence 4)  [4A9D704C]  (AR v2)
     Copy OK
Track 22
     Filename C:\Rips\Jelly Roll Morton - His Complete Victor Recordings\CD 5\22 West End Blues.wav
     Pre-gap length  0:00:01.62
     Peak level 88.6 %
     Extraction speed 3.5 X
     Track quality 100.0 %
     Copy CRC C5A92126
     Accurately ripped (confidence 4)  [D554D724]  (AR v2)
     Copy OK
Track 23
     Filename C:\Rips\Jelly Roll Morton - His Complete Victor Recordings\CD 5\23 Ballin' The Jack.wav
     Pre-gap length  0:00:01.62
     Peak level 69.7 %
     Extraction speed 3.5 X
     Track quality 100.0 %
     Copy CRC A59377D6
     Accurately ripped (confidence 4)  [11EC16D1]  (AR v2)
     Copy OK
All tracks accurately ripped
No errors occurred
End of status report
---- CUETools DB Plugin V2.1.4
[CTDB TOCID: p7eKYZ289Tx6DXaTXWPGfeZDwvU-] disk not present in database
Submit result: p7eKYZ289Tx6DXaTXWPGfeZDwvU- has been uploaded
==== Log checksum 8B7044B2A554ED67786ED63B12D94E39D1849E98676D707945912F5F9BEB608F ====
17:53
1110
Нет комментариев. Ваш будет первым!