Поиск

1991 Django Reinhardt & Le Quintette du Club de France - 1934-1937 (Jazz Archives 32) [CD]

1991 Django Reinhardt & Le Quintette du Club de France - 1934-1937 (Jazz Archives 32) [CD]
Стили:
Треклист:

01. Dinah (Akst, Lewis, Young ) - 2:36
02. Tiger Rag (DaCosta, Edwards, LaRocca ... ) - 2:34
03. I'm Confessin' (That I Love You) (Daugherty, Neiburg, Reynolds ) - 2:56
04. Swanee River (Foster ) - 3:03
05. Some of These Days (Brooks ) - 2:25
06. Djangology (Grappelli, Reinhardt ) - 2:57
07. I'se A-Muggin' (Smith ) - 3:09
08. I Can't Give You Anything But Love (Fields, McHugh ) - 3:24
09. Shine (Brown, Dabney, Mack ) - 2:56
10. Swing Guitars (Grappelli, Reinhardt ) - 2:28
11. Georgia on My Mind (Carmichael, Gorrell ) - 3:15
12. Tears (Grappelli, Reinhardt ) - 2:40
13. Solitude (DeLange, Ellington, Mills ) - 3:10
14. Charleston (Johnson, Mack ) - 2:52
15. Ain't Misbehavin' (Brooks, Razaf, Waller ) - 2:56
16. Rose Room (Hickman, Williams ) - 2:46
17. Body and Soul (Eyton, Green, Heyman, Sour ) - 3:29
18. Chicago (Fisher ) - 3:27
19. Mystery Pacific (Grappelli, Reinhardt ) - 2:22
20. The Sheik of Araby (Smith, Snyder, Wheeler ) - 3:05
21. Minor Swing (Grappelli, Reinhardt ) - 3:17
22. Viper's Dream (Allen ) - 3:14

Состав:
  • Django Reinhardt & le Quintette du Hot Club de France :
  • Stephane Grappelli (vln) & Django Reinhardt (g solo) in all tracks, with (1-2-3-4)
  • Roger Chaput, Joseph Reinhardt (g),
  • Louis Vola (b)
  • 12/1934 (1-2); 03/1935 (3); 04/1935 (4)
  • (5-6) Joseph Reinhardt, Pierre "Baro" Ferret (g)
  • Louis Vola (b)
  • Paris, 09/1935
  • (7-8) Joseph Reinhardt, Baro Ferret (g)
  • Lucien Simoens (b)
  • Freddy Taylor (vo)
  • Paris, 04/05/1936
  • (9-10-11) Joseph Reinhardt, Baro Ferret (g)
  • Louis Vola (b)
  • Freddy Taylor (vo en 9,11)
  • Paris. 15/10/1936
  • (12 to 20) Baro Ferret, Marcel Bianchi (g)
  • Louis Vola (b)
  • Paris, 21/04/1937
  • (12-13-14); 22/04/37(15-16-17); 26/04/37(18-19); 27/04/37(20)
  • (21-22) Joseph Reinhardt, Eugene Vees (g)
  • Louis Vola (b)
  • Paris, 25/11/1937
Лог создания рипа
Exact Audio Copy V0.99 prebeta 4 from 23. January 2008
EAC extraction logfile from 8. March 2010, 13:22
Django Reinhardt / Le Quintette du Club de France
Used drive  : HL-DT-STDVD-RAM GH22NP20   Adapter: 0  ID: 0
Read mode               : Secure
Utilize accurate stream : Yes
Defeat audio cache      : Yes
Make use of C2 pointers : No
Read offset correction                      : 102
Overread into Lead-In and Lead-Out          : No
Fill up missing offset samples with silence : Yes
Delete leading and trailing silent blocks   : No
Null samples used in CRC calculations       : Yes
Used interface                              : Installed external ASPI interface
Gap handling                                : Appended to previous track
Used output format              : User Defined Encoder
Selected bitrate                : 320 kBit/s
Quality                         : High
Add ID3 tag                     : No
Command line compressor         : C:\Program Files\Exact Audio Copy\Flac\flac.exe
Additional command line options : -V -8 -T "artist=%a" -T "title=%t" -T "album=%g" -T "date=%y" -T "tracknumber=%n" -T "genre=%m" %s
TOC of the extracted CD
     Track |   Start  |  Length  | Start sector | End sector
    ---------------------------------------------------------
        1  |  0:00.33 |  2:36.47 |        33    |    11779
        2  |  2:37.05 |  2:34.40 |     11780    |    23369
        3  |  5:11.45 |  2:56.60 |     23370    |    36629
        4  |  8:08.30 |  3:03.65 |     36630    |    50419
        5  | 11:12.20 |  2:25.03 |     50420    |    61297
        6  | 13:37.23 |  2:57.65 |     61298    |    74637
        7  | 16:35.13 |  3:09.35 |     74638    |    88847
        8  | 19:44.48 |  3:24.45 |     88848    |   104192
        9  | 23:09.18 |  2:56.57 |    104193    |   117449
       10  | 26:06.00 |  2:28.70 |    117450    |   128619
       11  | 28:34.70 |  3:15.40 |    128620    |   143284
       12  | 31:50.35 |  2:40.70 |    143285    |   155354
       13  | 34:31.30 |  3:10.55 |    155355    |   169659
       14  | 37:42.10 |  2:52.63 |    169660    |   182622
       15  | 40:34.73 |  2:56.02 |    182623    |   195824
       16  | 43:31.00 |  2:46.58 |    195825    |   208332
       17  | 46:17.58 |  3:29.17 |    208333    |   224024
       18  | 49:47.00 |  3:27.18 |    224025    |   239567
       19  | 53:14.18 |  2:22.55 |    239568    |   250272
       20  | 55:36.73 |  3:05.37 |    250273    |   264184
       21  | 58:42.35 |  3:17.55 |    264185    |   279014
       22  | 62:00.15 |  3:14.30 |    279015    |   293594
Track  1
     Filename D:\music\Musicgate's rips\Django Reinhardt - Le Quintette du Club de France (Jazz Archives 32, 1991)\01 - Dinah.wav
     Pre-gap length  0:00:02.44
     Peak level 63.5 %
     Track quality 100.0 %
     Test CRC 630A3EB3
     Copy CRC 630A3EB3
     Cannot be verified as accurate (confidence 2)  [2CE369CE], AccurateRip returned [DE0CB4CA]
     Copy OK
Track  2
     Filename D:\music\Musicgate's rips\Django Reinhardt - Le Quintette du Club de France (Jazz Archives 32, 1991)\02 - Tiger Rag.wav
     Pre-gap length  0:00:02.53
     Peak level 58.5 %
     Track quality 100.0 %
     Test CRC 6F2B5F93
     Copy CRC 6F2B5F93
     Cannot be verified as accurate (confidence 2)  [3C2C6E44], AccurateRip returned [A0287148]
     Copy OK
Track  3
     Filename D:\music\Musicgate's rips\Django Reinhardt - Le Quintette du Club de France (Jazz Archives 32, 1991)\03 - Confessin'.wav
     Pre-gap length  0:00:02.36
     Peak level 67.6 %
     Track quality 100.0 %
     Test CRC A4E77B4F
     Copy CRC A4E77B4F
     Cannot be verified as accurate (confidence 2)  [E06AB800], AccurateRip returned [83133DF0]
     Copy OK
Track  4
     Filename D:\music\Musicgate's rips\Django Reinhardt - Le Quintette du Club de France (Jazz Archives 32, 1991)\04 - Swanee River.wav
     Pre-gap length  0:00:02.69
     Peak level 79.2 %
     Track quality 100.0 %
     Test CRC 1A9BBD16
     Copy CRC 1A9BBD16
     Cannot be verified as accurate (confidence 2)  [66F7161C], AccurateRip returned [08C114B5]
     Copy OK
Track  5
     Filename D:\music\Musicgate's rips\Django Reinhardt - Le Quintette du Club de France (Jazz Archives 32, 1991)\05 - Some of These Days.wav
     Pre-gap length  0:00:02.62
     Peak level 70.7 %
     Track quality 100.0 %
     Test CRC 80667B4F
     Copy CRC 80667B4F
     Cannot be verified as accurate (confidence 2)  [0E303580], AccurateRip returned [17B6CEF1]
     Copy OK
Track  6
     Filename D:\music\Musicgate's rips\Django Reinhardt - Le Quintette du Club de France (Jazz Archives 32, 1991)\06 - Djangology.wav
     Pre-gap length  0:00:02.13
     Peak level 88.3 %
     Track quality 100.0 %
     Test CRC CEE63790
     Copy CRC CEE63790
     Cannot be verified as accurate (confidence 2)  [97277EAD], AccurateRip returned [A8D37FBD]
     Copy OK
Track  7
     Filename D:\music\Musicgate's rips\Django Reinhardt - Le Quintette du Club de France (Jazz Archives 32, 1991)\07 - I'se a Muggin'.wav
     Pre-gap length  0:00:02.40
     Peak level 59.0 %
     Track quality 100.0 %
     Test CRC 16B9C0F4
     Copy CRC 16B9C0F4
     Cannot be verified as accurate (confidence 2)  [C6E92BF7], AccurateRip returned [037149C4]
     Copy OK
Track  8
     Filename D:\music\Musicgate's rips\Django Reinhardt - Le Quintette du Club de France (Jazz Archives 32, 1991)\08 - I Can't Give You Anything But Love.wav
     Pre-gap length  0:00:03.20
     Peak level 65.6 %
     Track quality 100.0 %
     Test CRC 518C8996
     Copy CRC 518C8996
     Cannot be verified as accurate (confidence 2)  [F4BE6DC9], AccurateRip returned [65B7A621]
     Copy OK
Track  9
     Filename D:\music\Musicgate's rips\Django Reinhardt - Le Quintette du Club de France (Jazz Archives 32, 1991)\09 - Shine.wav
     Pre-gap length  0:00:02.84
     Peak level 77.0 %
     Track quality 100.0 %
     Test CRC 5DCF1F20
     Copy CRC 5DCF1F20
     Cannot be verified as accurate (confidence 2)  [FF755E0E], AccurateRip returned [023FEC24]
     Copy OK
Track 10
     Filename D:\music\Musicgate's rips\Django Reinhardt - Le Quintette du Club de France (Jazz Archives 32, 1991)\10 - Swing Guitars.wav
     Pre-gap length  0:00:02.02
     Peak level 83.4 %
     Track quality 100.0 %
     Test CRC 83B67676
     Copy CRC 83B67676
     Cannot be verified as accurate (confidence 2)  [EB2633AD], AccurateRip returned [1CBB4BA0]
     Copy OK
Track 11
     Filename D:\music\Musicgate's rips\Django Reinhardt - Le Quintette du Club de France (Jazz Archives 32, 1991)\11 - Georgia On My Mind.wav
     Pre-gap length  0:00:03.96
     Peak level 77.2 %
     Track quality 100.0 %
     Test CRC A7AC22D2
     Copy CRC A7AC22D2
     Cannot be verified as accurate (confidence 2)  [0E0E1950], AccurateRip returned [8A58FBAE]
     Copy OK
Track 12
     Filename D:\music\Musicgate's rips\Django Reinhardt - Le Quintette du Club de France (Jazz Archives 32, 1991)\12 - Tears.wav
     Pre-gap length  0:00:02.36
     Peak level 76.3 %
     Track quality 100.0 %
     Test CRC C1EEC69A
     Copy CRC C1EEC69A
     Cannot be verified as accurate (confidence 2)  [DDE528A8], AccurateRip returned [47C19C1A]
     Copy OK
Track 13
     Filename D:\music\Musicgate's rips\Django Reinhardt - Le Quintette du Club de France (Jazz Archives 32, 1991)\13 - Solitude.wav
     Pre-gap length  0:00:04.53
     Peak level 77.0 %
     Track quality 100.0 %
     Test CRC 309FFD3D
     Copy CRC 309FFD3D
     Cannot be verified as accurate (confidence 2)  [67E296E3], AccurateRip returned [C1F3D06B]
     Copy OK
Track 14
     Filename D:\music\Musicgate's rips\Django Reinhardt - Le Quintette du Club de France (Jazz Archives 32, 1991)\14 - Charleston.wav
     Pre-gap length  0:00:02.14
     Peak level 65.3 %
     Track quality 100.0 %
     Test CRC 9D28F32F
     Copy CRC 9D28F32F
     Cannot be verified as accurate (confidence 2)  [479C3460], AccurateRip returned [47590443]
     Copy OK
Track 15
     Filename D:\music\Musicgate's rips\Django Reinhardt - Le Quintette du Club de France (Jazz Archives 32, 1991)\15 - Ain't Misbehavin'.wav
     Pre-gap length  0:00:03.26
     Peak level 81.3 %
     Track quality 100.0 %
     Test CRC AA0428D7
     Copy CRC AA0428D7
     Cannot be verified as accurate (confidence 2)  [BA64E7CE], AccurateRip returned [FA2E9442]
     Copy OK
Track 16
     Filename D:\music\Musicgate's rips\Django Reinhardt - Le Quintette du Club de France (Jazz Archives 32, 1991)\16 - Rose Room.wav
     Pre-gap length  0:00:03.16
     Peak level 92.2 %
     Track quality 100.0 %
     Test CRC 2E227F71
     Copy CRC 2E227F71
     Cannot be verified as accurate (confidence 2)  [BA75F431], AccurateRip returned [0C6373C7]
     Copy OK
Track 17
     Filename D:\music\Musicgate's rips\Django Reinhardt - Le Quintette du Club de France (Jazz Archives 32, 1991)\17 - Body and Soul.wav
     Pre-gap length  0:00:03.33
     Peak level 72.7 %
     Track quality 100.0 %
     Test CRC 514A6B01
     Copy CRC 514A6B01
     Cannot be verified as accurate (confidence 2)  [B22B7913], AccurateRip returned [1C5B9639]
     Copy OK
Track 18
     Filename D:\music\Musicgate's rips\Django Reinhardt - Le Quintette du Club de France (Jazz Archives 32, 1991)\18 - Chicago.wav
     Pre-gap length  0:00:02.73
     Peak level 73.3 %
     Track quality 100.0 %
     Test CRC 158CC827
     Copy CRC 158CC827
     Cannot be verified as accurate (confidence 2)  [9B40815A], AccurateRip returned [F2FFBEC5]
     Copy OK
Track 19
     Filename D:\music\Musicgate's rips\Django Reinhardt - Le Quintette du Club de France (Jazz Archives 32, 1991)\19 - Mystery Pacific.wav
     Pre-gap length  0:00:03.46
     Peak level 84.5 %
     Track quality 100.0 %
     Test CRC 8F9A4A63
     Copy CRC 8F9A4A63
     Cannot be verified as accurate (confidence 2)  [845EEC95], AccurateRip returned [A8E7EE9E]
     Copy OK
Track 20
     Filename D:\music\Musicgate's rips\Django Reinhardt - Le Quintette du Club de France (Jazz Archives 32, 1991)\20 - The Sheik of Araby.wav
     Pre-gap length  0:00:03.24
     Peak level 98.3 %
     Track quality 100.0 %
     Test CRC 4D7F678C
     Copy CRC 4D7F678C
     Cannot be verified as accurate (confidence 3)  [672AAE40], AccurateRip returned [61D588C5]
     Copy OK
Track 21
     Filename D:\music\Musicgate's rips\Django Reinhardt - Le Quintette du Club de France (Jazz Archives 32, 1991)\21 - Minor Swing.wav
     Pre-gap length  0:00:02.36
     Peak level 84.4 %
     Track quality 100.0 %
     Test CRC 172EFB38
     Copy CRC 172EFB38
     Cannot be verified as accurate (confidence 3)  [C9CE0362], AccurateRip returned [AAF8F115]
     Copy OK
Track 22
     Filename D:\music\Musicgate's rips\Django Reinhardt - Le Quintette du Club de France (Jazz Archives 32, 1991)\22 - Viper's Dream.wav
     Pre-gap length  0:00:03.62
     Peak level 78.9 %
     Track quality 100.0 %
     Test CRC F79FBEFF
     Copy CRC F79FBEFF
     Cannot be verified as accurate (confidence 3)  [2301F985], AccurateRip returned [6DAFE329]
     Copy OK
No tracks could be verified as accurate
You may have a different pressing from the one(s) in the database
No errors occurred
End of status report
Содержание индексной карты (.CUE)
REM DATE 1991
REM DISCID 5A0F4A16
REM COMMENT "ExactAudioCopy v0.99pb4"
PERFORMER "Django Reinhardt"
TITLE "Le Quintette du Club de France"
FILE "01 - Dinah.wav" WAVE
  TRACK 01 AUDIO
    TITLE "Dinah"
    PERFORMER "Django Reinhardt"
    PREGAP 00:00:33
    INDEX 01 00:00:00
  TRACK 02 AUDIO
    TITLE "Tiger Rag"
    PERFORMER "Django Reinhardt"
    INDEX 00 02:34:07
FILE "02 - Tiger Rag.wav" WAVE
    INDEX 01 00:00:00
  TRACK 03 AUDIO
    TITLE "Confessin'"
    PERFORMER "Django Reinhardt"
    INDEX 00 02:32:13
FILE "03 - Confessin'.wav" WAVE
    INDEX 01 00:00:00
  TRACK 04 AUDIO
    TITLE "Swanee River"
    PERFORMER "Django Reinhardt"
    INDEX 00 02:54:08
FILE "04 - Swanee River.wav" WAVE
    INDEX 01 00:00:00
  TRACK 05 AUDIO
    TITLE "Some of These Days"
    PERFORMER "Django Reinhardt"
    INDEX 00 03:01:18
FILE "05 - Some of These Days.wav" WAVE
    INDEX 01 00:00:00
  TRACK 06 AUDIO
    TITLE "Djangology"
    PERFORMER "Django Reinhardt"
    INDEX 00 02:22:68
FILE "06 - Djangology.wav" WAVE
    INDEX 01 00:00:00
  TRACK 07 AUDIO
    TITLE "I'se a Muggin'"
    PERFORMER "Django Reinhardt"
    INDEX 00 02:55:35
FILE "07 - I'se a Muggin'.wav" WAVE
    INDEX 01 00:00:00
  TRACK 08 AUDIO
    TITLE "I Can't Give You Anything But Love"
    PERFORMER "Django Reinhardt"
    INDEX 00 03:06:20
FILE "08 - I Can't Give You Anything But Love.wav" WAVE
    INDEX 01 00:00:00
  TRACK 09 AUDIO
    TITLE "Shine"
    PERFORMER "Django Reinhardt"
    INDEX 00 03:21:57
FILE "09 - Shine.wav" WAVE
    INDEX 01 00:00:00
  TRACK 10 AUDIO
    TITLE "Swing Guitars"
    PERFORMER "Django Reinhardt"
    INDEX 00 02:54:55
FILE "10 - Swing Guitars.wav" WAVE
    INDEX 01 00:00:00
  TRACK 11 AUDIO
    TITLE "Georgia On My Mind"
    PERFORMER "Django Reinhardt"
    INDEX 00 02:24:73
FILE "11 - Georgia On My Mind.wav" WAVE
    INDEX 01 00:00:00
  TRACK 12 AUDIO
    TITLE "Tears"
    PERFORMER "Django Reinhardt"
    INDEX 00 03:13:13
FILE "12 - Tears.wav" WAVE
    INDEX 01 00:00:00
  TRACK 13 AUDIO
    TITLE "Solitude"
    PERFORMER "Django Reinhardt"
    INDEX 00 02:36:30
FILE "13 - Solitude.wav" WAVE
    INDEX 01 00:00:00
  TRACK 14 AUDIO
    TITLE "Charleston"
    PERFORMER "Django Reinhardt"
    INDEX 00 03:08:44
FILE "14 - Charleston.wav" WAVE
    INDEX 01 00:00:00
  TRACK 15 AUDIO
    TITLE "Ain't Misbehavin'"
    PERFORMER "Django Reinhardt"
    INDEX 00 02:49:43
FILE "15 - Ain't Misbehavin'.wav" WAVE
    INDEX 01 00:00:00
  TRACK 16 AUDIO
    TITLE "Rose Room"
    PERFORMER "Django Reinhardt"
    INDEX 00 02:52:65
FILE "16 - Rose Room.wav" WAVE
    INDEX 01 00:00:00
  TRACK 17 AUDIO
    TITLE "Body and Soul"
    PERFORMER "Django Reinhardt"
    INDEX 00 02:43:33
FILE "17 - Body and Soul.wav" WAVE
    INDEX 01 00:00:00
  TRACK 18 AUDIO
    TITLE "Chicago"
    PERFORMER "Django Reinhardt"
    INDEX 00 03:26:37
FILE "18 - Chicago.wav" WAVE
    INDEX 01 00:00:00
  TRACK 19 AUDIO
    TITLE "Mystery Pacific"
    PERFORMER "Django Reinhardt"
    INDEX 00 03:23:58
FILE "19 - Mystery Pacific.wav" WAVE
    INDEX 01 00:00:00
  TRACK 20 AUDIO
    TITLE "The Sheik of Araby"
    PERFORMER "Django Reinhardt"
    INDEX 00 02:19:37
FILE "20 - The Sheik of Araby.wav" WAVE
    INDEX 01 00:00:00
  TRACK 21 AUDIO
    TITLE "Minor Swing"
    PERFORMER "Django Reinhardt"
    INDEX 00 03:03:10
FILE "21 - Minor Swing.wav" WAVE
    INDEX 01 00:00:00
  TRACK 22 AUDIO
    TITLE "Viper's Dream"
    PERFORMER "Django Reinhardt"
    INDEX 00 03:14:08
FILE "22 - Viper's Dream.wav" WAVE
    INDEX 01 00:00:00
17:51
1034
Нет комментариев. Ваш будет первым!