Поиск

1991 Onaje Allan Gumbs - Dare To Dream {Zebra, MCA} [CD]

1991 Onaje Allan Gumbs - Dare To Dream {Zebra, MCA} [CD]
Стили:
Дата записи диска:
июль, сентябрь, ноябрь, декабрь 1989
Место записи:
Homebase Studios, Clinton Studios, New York, NY; Z Studios, Brooklyn, NY; Apollo Theatre Recording Studios, Harlem, NY
Издатель (лейбл):

This album is available on our DC++ hub: dc.pro-jazz.com
Этот альбом доступен на нашем DC++ хабе: dc.pro-jazz.com

Треклист:

01. No Question - 7.24
02. Second Thoughts - 6.46
03. The Look - 6.56
04. Dare To Dream - 4.31
05. Don't Touch My Heart (Unless You're Serious) - 5.23
06. Think About It (Interlude) - 0.40
07. So Nice - 3.46
08. For All It's Worth - 5.04
09. Think About It - 5.04
10. Are They Only Dreams - 5.20

Состав:
  • Engineer [Assistant] – Alvin Jowers, Lance Neal, Mark Conrad, Paul Krueger, Ron Hoyos
  • Executive-Producer – Ricky Schultz
  • Management – John Turpin III*, Raymond Shields II*
  • Mastered By – Tony Dawsey
  • Mixed By – Glenn Barratt
  • Producer, Arranged By – Onaje Allan Gumbs
  • Recorded By – Andrew Milano, Claude Demers, Don Feinberg, Gene Curtis, Jay Hettler
  • Recorded By [Chief Engineer] – Glenn Barratt
Лог создания рипа
Exact Audio Copy V1.0 beta 3 from 29. August 2011
EAC extraction logfile from 14. October 2019, 6:26
Onaje Allan Gumbs / Dare to Dream
Used drive : TSSTcorpCDDVDW SH-216DB Adapter: 0 ID: 0
Read mode : Secure
Utilize accurate stream : Yes
Defeat audio cache : Yes
Make use of C2 pointers : No
Read offset correction : 6
Overread into Lead-In and Lead-Out : No
Fill up missing offset samples with silence : Yes
Delete leading and trailing silent blocks : No
Null samples used in CRC calculations : Yes
Used interface : Native Win32 interface for Win NT & 2000
Used output format : User Defined Encoder
Selected bitrate : 1024 kBit/s
Quality : High
Add ID3 tag : No
Command line compressor : C:\Program Files (x86)\Exact Audio Copy\Flac\flac.exe
Additional command line options : -V -8 -T "Date=%year%" -T "Genre=%genre%" %source%
TOC of the extracted CD
Track | Start | Length | Start sector | End sector
---------------------------------------------------------
1 | 0:00.00 | 7:24.12 | 0 | 33311
2 | 7:24.12 | 6:46.43 | 33312 | 63804
3 | 14:10.55 | 6:56.47 | 63805 | 95051
4 | 21:07.27 | 4:31.68 | 95052 | 115444
5 | 25:39.20 | 5:22.72 | 115445 | 139666
6 | 31:02.17 | 0:40.68 | 139667 | 142734
7 | 31:43.10 | 3:46.60 | 142735 | 159744
8 | 35:29.70 | 7:36.22 | 159745 | 193966
9 | 43:06.17 | 5:04.58 | 193967 | 216824
10 | 48:11.00 | 5:20.02 | 216825 | 240826
Range status and errors
Selected range
Filename R:\Private\My Audio Ripps\Onaje Allan Gumbs - Dare to Dream.wav
Peak level 98.6 %
Extraction speed 2.9 X
Range quality 100.0 %
Test CRC 50FF2FBF
Copy CRC 50FF2FBF
Copy OK
No errors occurred
AccurateRip summary
Track 1 accurately ripped (confidence 4) [F9CED39D] (AR v2)
Track 2 accurately ripped (confidence 4) [504246F8] (AR v2)
Track 3 accurately ripped (confidence 5) [B28D7FED] (AR v2)
Track 4 accurately ripped (confidence 5) [942657E8] (AR v2)
Track 5 accurately ripped (confidence 5) [04AECA7B] (AR v2)
Track 6 accurately ripped (confidence 5) [0FBD0B7B] (AR v2)
Track 7 accurately ripped (confidence 5) [8FBC5D87] (AR v2)
Track 8 accurately ripped (confidence 4) [5CE62766] (AR v2)
Track 9 accurately ripped (confidence 5) [6D17E3D1] (AR v2)
Track 10 accurately ripped (confidence 5) [22BA9DDE] (AR v2)
All tracks accurately ripped
End of status report
==== Log checksum 9D81C33D352606951D6BB72AE025A215B1B74C1285D5593CE259280F0BCB57CB ====
18:00
358
Нет комментариев. Ваш будет первым!