Поиск

1992 Ethel Waters - 1925-1926 {The Chronological Classics 672} [CD]

1992 Ethel Waters - 1925-1926 {The Chronological Classics 672} [CD]
Дата записи диска:
25 августа 1925 - 29 июля 1926
Издатель (лейбл):
Номер по каталогу:
СС672
Носитель:
CD
Тип рипа:
tracks+.cue
Аудиокодек:
FLAC (*.flac)
Битрейт аудио:
lossless
Наличие сканов:
только обложка
Треклист:
01. Loud Speakin' Papa (You'd Better Speak Easy to Me) (3:03)
02. You Can't Do What My Last Man Did (3:05)
03. Pickaninny Blues (3:07)
04. Sweet Man (2:52)
05. Dinah (3:17)
06. No Man's Mamma (3:08)
07. Tell 'Em About Me (3:07)
08. Maybe Not at All (3:15)
09. Shake That Thing (3:21)
10. I've Found a New Baby (3:02)
11. Make Me a Pallet on the Floor (2:55)
12. Bring Your Greenbacks (2:53)
13. After All These Years (3:09)
14. Throw Dirt in Your Face (2:56)
15. I'm Saving It All for You (2:52)
16. Refrigeratin' Papa (Mama's Gonna Warm You Up) (3:25)
17. If You Can't Hold the Man You Love (2:51)
18. Satisfyin' Papa (2:58)
19. Sugar (3:14)
20. I Wonder What's Become of Joe? (2:51)
21. You'll Want Me Back (3:11)
22. Heebie Jeebies (2:49)
23. Ev'rybody Mess Aroun' (2:47)
Состав:
  • Alex Jackson     Sax (Baritone)
  • Coleman Hawkins     Sax (Baritone)
  • Lester Armstead     Piano
  • Anatol Schenker     Liner Notes
  • Jesse Baltimore     Drums
  • Harry Tate     Cornet
  • Horace Holmes     Cornet
  • Joe "Fox" Smith     Contralto (Vocal)
  • Ethel Waters     Composer, Vocals
  • Ralph "Shrimp" Jones     Composer, Director, Violin
  • Joe King     Clarinet, Sax (Alto), Sax (Soprano), Sax (Tenor), Trombone
  • Bill Benford     Bowed Bass
  • Maceo Jefferson     Banjo
  • Pearl Wright     Accompaniment, Piano
  • Louis Hooper     Accompaniment, Piano
  • Fletcher Henderson     Accompaniment, Piano
  • Nathaniel Reed     Accompaniment, Composer, Piano
  • Maceo Pinkard     Accompaniment, Composer, Piano
  • Sammy Fain     Accompaniment, Composer, Piano
  • Shelton Brooks     Accompaniment, Composer, Piano
Доп. инфо:

Этот диск из серии Classics Ethel Waters содержит множество жемчужин, включая "You Can't Do What My Last Man Did", оригинальную версию "Dinah", "Shake That Thing", "I've Found a New Baby" (в которой есть запоминающаяся игра корнета Джо Смита), "Sugar" и "Heebie Jeebies". В песне "Maybe Not at All" Уотерс жутко имитирует Бесси Смит и Клару Смит. В эту эпоху у нее было мало конкурентов в качестве джазовой певицы, и на этих в основном интимных записях (в 12 из 23 композиций ее сопровождает только пианист) Уотерс предстает в своем лучшем виде.

Лог создания рипа
Exact Audio Copy V1.0 beta 3 from 29. August 2011
EAC extraction logfile from 24. October 2014, 22:22
Ethel Waters / Ethel Waters 1925-1926
Used drive  : HL-DT-STDVD+-RW GT32N   Adapter: 0  ID: 1
Read mode               : Secure
Utilize accurate stream : Yes
Defeat audio cache      : Yes
Make use of C2 pointers : No
Read offset correction                      : 103
Overread into Lead-In and Lead-Out          : No
Fill up missing offset samples with silence : Yes
Delete leading and trailing silent blocks   : No
Null samples used in CRC calculations       : Yes
Used interface                              : Native Win32 interface for Win NT & 2000
Gap handling                                : Appended to previous track
Used output format              : User Defined Encoder
Selected bitrate                : 1024 kBit/s
Quality                         : High
Add ID3 tag                     : No
Command line compressor         : C:\Program Files (x86)\Exact Audio Copy\Flac\flac.exe
Additional command line options : -8 -V -T "ARTIST=%artist%" -T "TITLE=%title%" -T "ALBUM=%albumtitle%" -T "DATE=%year%" -T "TRACKNUMBER=%tracknr%" -T "GENRE=%genre%" -T "PERFORMER=%albuminterpret%" -T "COMPOSER=%composer%" %haslyrics%--tag-from-file=LYRICS="%lyricsfile%"%haslyrics% -T "ALBUMARTIST=%albumartist%" -T "DISCNUMBER=%cdnumber%" -T "TOTALDISCS=%totalcds%" -T "TOTALTRACKS=%numtracks%" -T "COMMENT=%comment%" %source% -o %dest%
TOC of the extracted CD
     Track |   Start  |  Length  | Start sector | End sector
    ---------------------------------------------------------
        1  |  0:00.32 |  3:03.18 |        32    |    13774
        2  |  3:03.50 |  3:04.65 |     13775    |    27639
        3  |  6:08.40 |  3:07.02 |     27640    |    41666
        4  |  9:15.42 |  2:51.45 |     41667    |    54536
        5  | 12:07.12 |  3:16.55 |     54537    |    69291
        6  | 15:23.67 |  3:08.18 |     69292    |    83409
        7  | 18:32.10 |  3:07.00 |     83410    |    97434
        8  | 21:39.10 |  3:15.22 |     97435    |   112081
        9  | 24:54.32 |  3:20.43 |    112082    |   127124
       10  | 28:15.00 |  3:02.22 |    127125    |   140796
       11  | 31:17.22 |  2:55.30 |    140797    |   153951
       12  | 34:12.52 |  2:52.53 |    153952    |   166904
       13  | 37:05.30 |  3:08.52 |    166905    |   181056
       14  | 40:14.07 |  2:55.43 |    181057    |   194224
       15  | 43:09.50 |  2:52.12 |    194225    |   207136
       16  | 46:01.62 |  3:25.33 |    207137    |   222544
       17  | 49:27.20 |  2:50.72 |    222545    |   235366
       18  | 52:18.17 |  2:57.65 |    235367    |   248706
       19  | 55:16.07 |  3:14.08 |    248707    |   263264
       20  | 58:30.15 |  2:51.27 |    263265    |   276116
       21  | 61:21.42 |  3:11.20 |    276117    |   290461
       22  | 64:32.62 |  2:48.70 |    290462    |   303131
       23  | 67:21.57 |  2:47.10 |    303132    |   315666
Track  1
     Filename C:\EAC-Rips\Ethel Waters - Ethel Waters 1925-1926 (1992) [672] - FLAC\01 - Loud Speakin' Papa.wav
     Pre-gap length  0:00:02.42
     Peak level 87.0 %
     Extraction speed 1.0 X
     Track quality 99.9 %
     Test CRC 5DEA113F
     Copy CRC 5DEA113F
     Track not present in AccurateRip database
     Copy OK
Track  2
     Filename C:\EAC-Rips\Ethel Waters - Ethel Waters 1925-1926 (1992) [672] - FLAC\02 - You Can't Do What My Last Man Did.wav
     Pre-gap length  0:00:01.50
     Peak level 87.4 %
     Extraction speed 1.3 X
     Track quality 100.0 %
     Test CRC 945B994D
     Copy CRC 945B994D
     Track not present in AccurateRip database
     Copy OK
Track  3
     Filename C:\EAC-Rips\Ethel Waters - Ethel Waters 1925-1926 (1992) [672] - FLAC\03 - Pickininny Blues.wav
     Pre-gap length  0:00:01.44
     Peak level 76.6 %
     Extraction speed 1.3 X
     Track quality 100.0 %
     Test CRC 13266709
     Copy CRC 13266709
     Track not present in AccurateRip database
     Copy OK
Track  4
     Filename C:\EAC-Rips\Ethel Waters - Ethel Waters 1925-1926 (1992) [672] - FLAC\04 - Sweet Man.wav
     Pre-gap length  0:00:01.40
     Peak level 99.7 %
     Extraction speed 1.4 X
     Track quality 100.0 %
     Test CRC 679C67E1
     Copy CRC 679C67E1
     Track not present in AccurateRip database
     Copy OK
Track  5
     Filename C:\EAC-Rips\Ethel Waters - Ethel Waters 1925-1926 (1992) [672] - FLAC\05 - Dinah.wav
     Pre-gap length  0:00:00.96
     Peak level 72.8 %
     Extraction speed 1.5 X
     Track quality 100.0 %
     Test CRC 72350336
     Copy CRC 72350336
     Track not present in AccurateRip database
     Copy OK
Track  6
     Filename C:\EAC-Rips\Ethel Waters - Ethel Waters 1925-1926 (1992) [672] - FLAC\06 - No Man's Mama.wav
     Pre-gap length  0:00:01.33
     Peak level 88.9 %
     Extraction speed 1.3 X
     Track quality 99.9 %
     Test CRC 9AA81EC5
     Copy CRC 9AA81EC5
     Track not present in AccurateRip database
     Copy OK
Track  7
     Filename C:\EAC-Rips\Ethel Waters - Ethel Waters 1925-1926 (1992) [672] - FLAC\07 - Tell 'Em About Me.wav
     Pre-gap length  0:00:01.30
     Peak level 87.8 %
     Extraction speed 1.6 X
     Track quality 100.0 %
     Test CRC B4573933
     Copy CRC B4573933
     Track not present in AccurateRip database
     Copy OK
Track  8
     Filename C:\EAC-Rips\Ethel Waters - Ethel Waters 1925-1926 (1992) [672] - FLAC\08 - Maybe Not At All.wav
     Pre-gap length  0:00:01.24
     Peak level 67.1 %
     Extraction speed 1.7 X
     Track quality 100.0 %
     Test CRC EEA4E190
     Copy CRC EEA4E190
     Track not present in AccurateRip database
     Copy OK
Track  9
     Filename C:\EAC-Rips\Ethel Waters - Ethel Waters 1925-1926 (1992) [672] - FLAC\09 - Shake That Thing.wav
     Pre-gap length  0:00:01.49
     Peak level 75.2 %
     Extraction speed 1.8 X
     Track quality 100.0 %
     Test CRC 6216499C
     Copy CRC 6216499C
     Track not present in AccurateRip database
     Copy OK
Track 10
     Filename C:\EAC-Rips\Ethel Waters - Ethel Waters 1925-1926 (1992) [672] - FLAC\10 - I've Found A New Baby.wav
     Pre-gap length  0:00:01.37
     Peak level 76.3 %
     Extraction speed 1.8 X
     Track quality 100.0 %
     Test CRC A2149F3C
     Copy CRC A2149F3C
     Track not present in AccurateRip database
     Copy OK
Track 11
     Filename C:\EAC-Rips\Ethel Waters - Ethel Waters 1925-1926 (1992) [672] - FLAC\11 - Make Me A Pallet On The Floor.wav
     Pre-gap length  0:00:01.16
     Peak level 66.6 %
     Extraction speed 1.9 X
     Track quality 100.0 %
     Test CRC 4A910695
     Copy CRC 4A910695
     Track not present in AccurateRip database
     Copy OK
Track 12
     Filename C:\EAC-Rips\Ethel Waters - Ethel Waters 1925-1926 (1992) [672] - FLAC\12 - Bring Your Greenbacks.wav
     Pre-gap length  0:00:01.13
     Peak level 77.8 %
     Extraction speed 2.0 X
     Track quality 100.0 %
     Test CRC 4BC5EBD5
     Copy CRC 4BC5EBD5
     Track not present in AccurateRip database
     Copy OK
Track 13
     Filename C:\EAC-Rips\Ethel Waters - Ethel Waters 1925-1926 (1992) [672] - FLAC\13 - After All These Years.wav
     Pre-gap length  0:00:01.64
     Peak level 74.9 %
     Extraction speed 2.0 X
     Track quality 100.0 %
     Test CRC C6B8D77B
     Copy CRC C6B8D77B
     Track not present in AccurateRip database
     Copy OK
Track 14
     Filename C:\EAC-Rips\Ethel Waters - Ethel Waters 1925-1926 (1992) [672] - FLAC\14 - Throw Dirt In Your Face.wav
     Pre-gap length  0:00:01.80
     Peak level 60.5 %
     Extraction speed 2.0 X
     Track quality 100.0 %
     Test CRC 6DF59D50
     Copy CRC 6DF59D50
     Track not present in AccurateRip database
     Copy OK
Track 15
     Filename C:\EAC-Rips\Ethel Waters - Ethel Waters 1925-1926 (1992) [672] - FLAC\15 - I'm Saving It All For You.wav
     Pre-gap length  0:00:01.97
     Peak level 80.4 %
     Extraction speed 2.1 X
     Track quality 100.0 %
     Test CRC 64CCCFEE
     Copy CRC 64CCCFEE
     Track not present in AccurateRip database
     Copy OK
Track 16
     Filename C:\EAC-Rips\Ethel Waters - Ethel Waters 1925-1926 (1992) [672] - FLAC\16 - Refrigeratin' Papa.wav
     Pre-gap length  0:00:01.66
     Peak level 75.0 %
     Extraction speed 2.2 X
     Track quality 100.0 %
     Test CRC 4E80697F
     Copy CRC 4E80697F
     Track not present in AccurateRip database
     Copy OK
Track 17
     Filename C:\EAC-Rips\Ethel Waters - Ethel Waters 1925-1926 (1992) [672] - FLAC\17 - If You Can't Hold The Man You Love.wav
     Pre-gap length  0:00:01.33
     Peak level 80.9 %
     Extraction speed 1.9 X
     Track quality 99.9 %
     Test CRC B1E60242
     Copy CRC B1E60242
     Track not present in AccurateRip database
     Copy OK
Track 18
     Filename C:\EAC-Rips\Ethel Waters - Ethel Waters 1925-1926 (1992) [672] - FLAC\18 - Satisfyin' Papa.wav
     Pre-gap length  0:00:01.09
     Peak level 64.7 %
     Extraction speed 2.3 X
     Track quality 100.0 %
     Test CRC B23276CA
     Copy CRC B23276CA
     Track not present in AccurateRip database
     Copy OK
Track 19
     Filename C:\EAC-Rips\Ethel Waters - Ethel Waters 1925-1926 (1992) [672] - FLAC\19 - Sugar.wav
     Pre-gap length  0:00:01.29
     Peak level 82.4 %
     Extraction speed 2.3 X
     Track quality 100.0 %
     Test CRC E354151A
     Copy CRC E354151A
     Track not present in AccurateRip database
     Copy OK
Track 20
     Filename C:\EAC-Rips\Ethel Waters - Ethel Waters 1925-1926 (1992) [672] - FLAC\20 - I Wonder What's Become Of Joe.wav
     Pre-gap length  0:00:02.44
     Peak level 64.3 %
     Extraction speed 2.3 X
     Track quality 100.0 %
     Test CRC 7ADD9D2D
     Copy CRC 7ADD9D2D
     Track not present in AccurateRip database
     Copy OK
Track 21
     Filename C:\EAC-Rips\Ethel Waters - Ethel Waters 1925-1926 (1992) [672] - FLAC\21 - You'll Want Me Back.wav
     Pre-gap length  0:00:02.36
     Peak level 83.9 %
     Extraction speed 2.4 X
     Track quality 100.0 %
     Test CRC 1CED1FD1
     Copy CRC 1CED1FD1
     Track not present in AccurateRip database
     Copy OK
Track 22
     Filename C:\EAC-Rips\Ethel Waters - Ethel Waters 1925-1926 (1992) [672] - FLAC\22 - Heebie Jeebies.wav
     Pre-gap length  0:00:01.96
     Peak level 95.3 %
     Extraction speed 2.4 X
     Track quality 100.0 %
     Test CRC 7CB119CB
     Copy CRC 7CB119CB
     Track not present in AccurateRip database
     Copy OK
Track 23
     Filename C:\EAC-Rips\Ethel Waters - Ethel Waters 1925-1926 (1992) [672] - FLAC\23 - Ev'rybody Mess Aroun'.wav
     Pre-gap length  0:00:01.82
     Peak level 73.8 %
     Extraction speed 2.4 X
     Track quality 100.0 %
     Test CRC E87CB5DD
     Copy CRC E87CB5DD
     Track not present in AccurateRip database
     Copy OK
None of the tracks are present in the AccurateRip database
No errors occurred
End of status report
==== Log checksum B3A954A2333706CB08AA7F23A9F174EA85CABAFC826F435C31476F036DF3501A ====
По всем вопросам пишите личное сообщение пользователю M0p94ok.
03:37
483
17:30
What do you mean by «should»? I have almost all the albums in my collection from the list you cited.
18:09