Поиск

1994 Dewey Redman feat. Joshua Redman - African Venus (2017) {Venus} [DSD64 ISO]

1994 Dewey Redman feat. Joshua Redman - African Venus (2017) {Venus} [DSD64 ISO]
Дата записи диска:
11 декабря 1992
Место записи:
Sound on Sound Studio, NY
Издатель (лейбл):
Номер по каталогу:
VHGD-257
Носитель:
SACD
Формат:
DSD
Тип рипа:
image
Контейнер:
ISO (*.iso)
Количество каналов:
2.0
Разрядность/ЧД:
64 (2,8 MHz/1 Bit)
Битрейт аудио:
lossless
Время звучания:
00:52:44
Наличие сканов:
только обложка
Релизёр (источник):
jazzy

Треклист:

1. African Venus  09:25
2. Venus and Mars (feat. Joshua Redman)  07:49
3. Mr. Sandman  06:55
4. Echo Prayer  05:56
5. Satin Doll (feat. Joshua Redman)  08:24
6. Take the a Train (feat. Joshua Redman)  07:45
7. The Turne Around  06:29

Состав:
  •     Bass – Anthony Cox
  •     Drums – Carl Allen
  •     Mastered By – Tetsuo Hara
  •     Mixed By – Tetsuo Hara
  •     Percussion – Danny Sadownick
  •     Piano – Charles Eubanks
  •     Producer – Tetsuo Hara
  •     Tenor Saxophone – Joshua Redman (tracks: 2, 3, 5)
  •     Tenor Saxophone, Alto Saxophone, Suona [Musette] – Dewey Redman
Доп. инфо:

К моменту записи альбома "African Venus" в 1992 году Дьюи Редмэн объединил огонь своей прежней игры с более мягким, мелодичным подходом. В песнях "Satin Doll", "Mr. Sandman" и "Take the 'A' Train" Редман скользит в более традиционном боповом ключе, в то время как заглавная композиция и "Turnaround" Орнетта Коулмана больше похожи на огненного Редмана из "Look for the Black Star" или "Tarik". К Редману на этом диске присоединились Чарльз Юбэнкс (фортепиано), Энтони Кокс (бас), Карл Аллен (ударные), Дэнни Сэдоуник (перкуссия) и Джошуа Редман (тенор-саксофон), сыгравший три трека. Не самый важный диск, но и далеко не бросовый.

Лог проверки качества
foobar2000 1.6.4 / Dynamic Range Meter 1.1.1
log date: 2021-07-08 11:28:24
--------------------------------------------------------------------------------
Analyzed: DEWEY REDMAN / African Venus
--------------------------------------------------------------------------------
DR         Peak         RMS     Duration Track
--------------------------------------------------------------------------------
DR8       -4.77 dB   -15.11 dB      9:26 01-African Venus
DR8       -4.67 dB   -14.70 dB      7:49 02-Venus And Mars
DR8       -4.69 dB   -14.54 dB      6:55 03-Mr. Sandman
DR8       -5.06 dB   -16.23 dB      5:56 04-Echo Prayer
DR7       -5.17 dB   -14.05 dB      8:24 05-Satin Doll
DR8       -4.78 dB   -14.49 dB      7:45 06-Take The "A" Train
DR8       -4.44 dB   -14.70 dB      6:29 07-The Turne Around
--------------------------------------------------------------------------------
Number of tracks:  7
Official DR value: DR8
Samplerate:        2822400 Hz / PCM Samplerate: 88200 Hz
Channels:          2
Bits per sample:   1
Bitrate:           5645 kbps
Codec:             DSD64
================================================================================
Download available for power users only.
10:30
130
Нет комментариев. Ваш будет первым!