Поиск

1994 Paul Bley Trio - Emerald Blue (2019) {Venus} [DSD64 ISO]

1994 Paul Bley Trio - Emerald Blue (2019) {Venus} [DSD64 ISO]
Дата записи диска:
17 сентября 1994
Место записи:
Masuo Studio, New York, NY
Дата издания диска:
21 декабря 1994
Издатель (лейбл):
Номер по каталогу:
VHGD-343
Носитель:
SACD
Формат:
DSD
Тип рипа:
image
Контейнер:
ISO (*.iso)
Количество каналов:
2.0
Разрядность/ЧД:
64 (2,8 MHz/1 Bit)
Битрейт аудио:
lossless
Время звучания:
00:48:28
Наличие сканов:
только обложка
Треклист:

01. Rainbow Cry
02. Orchid Smile
03. Emerald Blue
04. Hymn
05. Spiral 1
06. Spiral 2
07. Downward Spiral
08. Foolishly
09. Chanted Evening
10. Dialogue
11. Interiors
12. After Me

Состав:
  • David Baker     Engineer, Mixing
  • Todd Barkan     Producer
  • Paul Bley     Arranger, Composer, DX-7, Piano
  • Bruce Ditmas     Arranger, Composer, Drums
  • David Eyges     Arranger, Composer, Electric Cello, Producer
  • Tetsuo Hara     Executive Producer
Лог проверки качества
foobar2000 1.6.8 / Dynamic Range Meter 1.1.1
log date: 2021-12-23 18:36:42
--------------------------------------------------------------------------------
Analyzed: PAUL BLEY TRIO featuring DAVID EYGES & BRUCE DITMAS / Emerald Blue
--------------------------------------------------------------------------------
DR         Peak         RMS     Duration Track
--------------------------------------------------------------------------------
DR8       -6.91 dB   -18.40 dB      5:44 01-Rainbow Cry
DR12      -6.00 dB   -23.05 dB      4:23 02-Orchid Smile
DR9       -6.83 dB   -20.01 dB      3:11 03-Emerald Blue
DR11      -5.60 dB   -20.41 dB      4:35 04-Hymn
DR9       -5.91 dB   -19.06 dB      2:54 05-Spiral 1
DR12      -6.21 dB   -22.57 dB      5:42 06-Spiral 2
DR11      -5.07 dB   -21.74 dB      2:46 07-Downword Spiral
DR9       -5.46 dB   -18.67 dB      5:09 08-Foolishly
DR9       -5.33 dB   -18.40 dB      5:04 09-Chanted Evening
DR11      -7.34 dB   -22.11 dB      2:21 10-Dialogue
DR8       -5.18 dB   -16.74 dB      3:10 11-Interiors
DR12      -7.38 dB   -23.60 dB      3:29 12-After Me
--------------------------------------------------------------------------------
Number of tracks:  12
Official DR value: DR10
Samplerate:        2822400 Hz / PCM Samplerate: 88200 Hz
Channels:          2
Bits per sample:   1
Bitrate:           5645 kbps
Codec:             DSD64
================================================================================
Download available for power users only.
07:46
156
Нет комментариев. Ваш будет первым!