Поиск

1996 Shirley Horn - The Main Ingredient {Verve} [CD]

1996 Shirley Horn - The Main Ingredient {Verve} [CD]
Дата записи диска:
15 мая - 18 мая, 28 мая, 2 сентября 1995
Место записи:
Big Mo Recording, Washington DC; Sound on Sound, New York, NY
Издатель (лейбл):
01. Blues For Sarge [0:04:17.96]
02. The Look Of Love [0:05:24.46]
03. Keepin' Out Of Mischief Now [0:03:50.24]
04. The Meaning Of The Blues [0:07:57.33]
05. Here's Looking At You! [0:03:28.56]
06. You Go To My Head [0:09:11.37]
07. Fever [0:04:45.86]
08. Come In From The Rain [0:04:53.09]
09. Peel Me A Grape [0:02:58.33]
10. All Or Nothing At All [0:07:10.20]
Состав:
  • Bass – Charles Ables (tracks: 2, 3, 5, 7, 9), Steve Novosel (tracks: 1, 4, 6, 8, 10)
  • Drums – Billy Hart (tracks: 9), Elvin Jones (tracks: 6, 10), Steve Williams (5) (tracks: 1 to 5, 7, 8)
  • Engineer – David Baker
  • Engineer [Assistant] – Greg Hartman, Kevin Wait
  • Executive Producer – Richard Seidel
  • Flugelhorn – Roy Hargrove (tracks: 4)
  • Guitar – Charles Ables (tracks: 1, 8)
  • Mastered By – David Baker, Duncan Stanbury
  • Mixed By – David Baker
  • Producer, Liner Notes – Shirley Horn
  • Tenor Saxophone – Buck Hill (tracks: 1, 3, 10), Joe Henderson (tracks: 6, 10)
  • Vocals, Piano – Shirley Horn
Лог создания рипа
Exact Audio Copy V0.99 prebeta 3 from 28. July 2007
Отчёт EAC об извлечении, выполненном 30. января 2008, 16:49
Shirley Horn / The Main Ingredient
Дисковод: PIONEER DVD-RW DVR-212D Adapter: 0 ID: 1
Режим чтения : Достоверность
Использование точного потока : Да
Отключение кэша аудио : Да
Использование указателей C2 : Нет
Коррекция смещения при чтении : 48
Способность читать области Lead-in и Lead-out : Нет
Заполнение пропущенных сэмплов тишиной : Да
Удаление блоков с тишиной в начале и конце : Нет
При вычислениях CRC использовались нулевые сэмплы : Нет
Интерфейс : Установленный внешний ASPI-интерфейс
Выходной формат : Monkey's Audio Lossless Encoder v3.99 DLL
Формат сэмплов : Normal Lossless Compression
TOC извлечённого CD
Трек | Старт | Длительность | Начальный сектор | Конечный сектор
---------------------------------------------------------------------
1 | 0:00.00 | 4:17.72 | 0 | 19346
2 | 4:17.72 | 5:24.35 | 19347 | 43681
3 | 9:42.32 | 3:50.18 | 43682 | 60949
4 | 13:32.50 | 7:57.25 | 60950 | 96749
5 | 21:30.00 | 3:28.42 | 96750 | 112391
6 | 24:58.42 | 9:11.28 | 112392 | 153744
7 | 34:09.70 | 4:45.65 | 153745 | 175184
8 | 38:55.60 | 4:53.07 | 175185 | 197166
9 | 43:48.67 | 2:58.25 | 197167 | 210541
10 | 46:47.17 | 7:10.15 | 210542 | 242806
Характеристики диапазона извлечения и сообщения об ошибках
Выбранный диапазон
Имя файла C:\EAC\Shirley Horn - The Main Ingredient.ape
Пиковый уровень 99.9 %
Качество диапазона 100.0 %
CRC теста A0CADD75
CRC копии A0CADD75
Копирование... OK
Ошибок не произошло
AccurateRip: сводка
Трек 1 нет в базе данных
Трек 2 нет в базе данных
Трек 3 нет в базе данных
Трек 4 нет в базе данных
Трек 5 нет в базе данных
Трек 6 нет в базе данных
Трек 7 нет в базе данных
Трек 8 нет в базе данных
Трек 9 нет в базе данных
Трек 10 нет в базе данных
Ни одного трека нет в базе AccurateRip
Конец отчёта
Скачивание доступно после регистрации!!
Приватный:
Нет (DHT включён)
Размер:
276.37 Мб (289,795,392 байт) » файлов: 12
Участники:
0 раздают, 0 качают (0 участников всего)
Внешние участники:
5 раздают, 1 качают (6 участников всего) [ Обновить ]
01:28
671
Нет комментариев. Ваш будет первым!