Поиск

1997 Maucha Adnet - Songs I Learned From Jobim (2018) {Venus} [DSD64 ISO]

1997 Maucha Adnet - Songs I Learned From Jobim (2018) {Venus} [DSD64 ISO]
Дата записи диска:
29 января - 31 января, 3 февраля - 4 февраля 1997
Место записи:
Clinton Recording Studios, New York, NY, USA
Издатель (лейбл):
Номер по каталогу:
VHGD-317
Носитель:
SACD
Формат:
DSD
Тип рипа:
image
Контейнер:
ISO (*.iso)
Количество каналов:
2.0
Разрядность/ЧД:
64 (2,8 MHz/1 Bit)
Битрейт аудио:
lossless
Время звучания:
00:52:07
Наличие сканов:
только обложка
Релизёр (источник):
jazzy
Треклист:

01. Ceu E Mar《 J. Alf 》
02. Vai Ficar Bom《 M. Adnet / M. Adnet 》
03. There Will Never Be Another You《 H. Warren / M. Gordon》
04. Choro Bandido《 E. Lobo / C. Buarque 》
05. So Danco Samba《 A. C. Jobim / V. D. Moraes》
06. Curare《 Bororo 》
07. Dom De Iludir《 C. Veloso 》
08. Bim-Bom《 J. Gilberto 》
09. I Concentrate On You《 C. Porter 》
10. Aguas De Marco《 A. C. Jobim 》
11. Sublime Tortura《 Bororo 》
12. These Foolish Things《 J. Strachey / H. Link / H. Marvell 》
13. Pra Que Discutir Com Madame《 J. D. Almeida / H. Barbosa 》
14. Maracangalha《 D. Caymmi 》
15. Vignette Maracangalha《 J. Concept 》

Состав:
  • Maucha Adnet — lead vocal
  • Mario Adnet — acoustic guitar, vocals
  • Romeo Lubambo — acoustic guitar
  • Hugo Fattoruso — piano, accordion, keyboard
  • Dom Salvador — piano
  • Alfredo Cardim — piano
  • Nilson Matta — bass
  • Duduka Da Fonseca — drums
  • Waltinho Anastacio — percussion
  • Jay Ashby — trombone
  • Ze Luis Oliveira — flute
  • Claudio Roditi — Flugelhorn
  • Randy Brecker — Flugelhorn
  • Alana Da Fonseca — vocals
  • Mario, Hugo, Ze Luis, Nilson, Waltinho, Jay & Romero — vocals on No. 15
  • Engineer – Troy Halderson
  • Producer, Mastered By – Tetsuo Hara
Лог проверки качества
foobar2000 1.6.8 / Dynamic Range Meter 1.1.1
log date: 2022-01-08 14:04:05
--------------------------------------------------------------------------------
Analyzed: MAUCHA ADNET / Songs I Learned From Jobim
--------------------------------------------------------------------------------
DR         Peak         RMS     Duration Track
--------------------------------------------------------------------------------
DR8       -4.91 dB   -15.03 dB      4:44 01-Ceu E Mar
DR10      -5.35 dB   -16.35 dB      3:06 02-Vai Ficar Bom
DR9       -5.19 dB   -16.80 dB      3:30 03-There Will Never Be Another You
DR10      -5.33 dB   -19.06 dB      3:37 04-Choro Bandido
DR11      -4.92 dB   -18.55 dB      3:35 05-So Danco Samba
DR10      -5.41 dB   -18.15 dB      2:44 06-Curare
DR10      -4.85 dB   -18.04 dB      3:51 07-Dom De Iludir
DR8       -5.07 dB   -15.50 dB      3:08 08-Bim-Bom
DR9       -5.28 dB   -16.64 dB      4:57 09-I Concentrate On You
DR9       -5.16 dB   -16.66 dB      3:48 10-Aguas De Marco
DR9       -5.29 dB   -16.54 dB      2:34 11-Sublime Tortura
DR9       -5.47 dB   -18.03 dB      3:28 12-These Foolish Things
DR11      -5.46 dB   -17.98 dB      3:17 13-Pra Que Discutir Com Madame
DR9       -4.95 dB   -17.11 dB      4:13 14-Maracangalha
DR10      -5.23 dB   -18.25 dB      1:37 15-Vignette Maracangalha
--------------------------------------------------------------------------------
Number of tracks:  15
Official DR value: DR9
Samplerate:        2822400 Hz / PCM Samplerate: 88200 Hz
Channels:          2
Bits per sample:   1
Bitrate:           5645 kbps
Codec:             DSD64
================================================================================
По всем вопросам пишите личное сообщение пользователю M0p94ok.
19:24
92
Нет комментариев. Ваш будет первым!