Поиск

1998 Shirley Horn - Jazz 'Round Midnight {PolyGram, Verve} [CD]

1998 Shirley Horn - Jazz 'Round Midnight {PolyGram, Verve} [CD]
Издатель (лейбл):
Треклист:
01. A Time For Love [0:06:47.02]
02. Someone To Light Up My Life [0:04:39.10]
03. Beautiful Love [0:03:40.56]
04. Fever [0:04:45.20]
05. Loving You [0:04:24.50]
06. How Long Has This Been Going On? [0:04:02.82]
07. Quitely There [0:06:10.86]
08. Baby, Baby All The Time [0:02:47.77]
09. You Don't Know Me [0:03:00.62]
10. I Wanna Be Loved [0:04:40.04]
11. Peel Me A Grape [0:02:57.66]
12. How Am I To Know? [0:03:26.60]
13. So I Love You [0:03:21.69]
14. The Meaning Of The Blues [0:07:54.06]
Доп. инфо:

Страна: USA
Жанр: Jazz
Год выпуска: 1998 (Compilation)
Формат: APE (image + .cue)
Битрейт аудио: lossless
Продолжительность: 62:39

This Compilation (P) © 1998 PolyGram Records, Inc. ... by Verve
Records. 314 539 678-2.

Лог создания рипа
Exact Audio Copy V0.99 prebeta 3 from 28. July 2007
Отчёт EAC об извлечении, выполненном 30. января 2008, 18:52
Shirley Horn / Jazz 'Round Midnight
Дисковод: PIONEER DVD-RW DVR-212D Adapter: 0 ID: 1
Режим чтения : Достоверность
Использование точного потока : Да
Отключение кэша аудио : Да
Использование указателей C2 : Нет
Коррекция смещения при чтении : 48
Способность читать области Lead-in и Lead-out : Нет
Заполнение пропущенных сэмплов тишиной : Да
Удаление блоков с тишиной в начале и конце : Нет
При вычислениях CRC использовались нулевые сэмплы : Нет
Интерфейс : Установленный внешний ASPI-интерфейс
Выходной формат : Monkey's Audio Lossless Encoder v3.99 DLL
Формат сэмплов : Normal Lossless Compression
TOC извлечённого CD
Трек | Старт | Длительность | Начальный сектор | Конечный сектор
---------------------------------------------------------------------
1 | 0:00.00 | 6:47.02 | 0 | 30526
2 | 6:47.02 | 4:39.08 | 30527 | 51459
3 | 11:26.10 | 3:40.42 | 51460 | 68001
4 | 15:06.52 | 4:45.15 | 68002 | 89391
5 | 19:51.67 | 4:24.38 | 89392 | 109229
6 | 24:16.30 | 4:02.62 | 109230 | 127441
7 | 28:19.17 | 6:10.65 | 127442 | 155256
8 | 34:30.07 | 2:47.58 | 155257 | 167839
9 | 37:17.65 | 3:00.47 | 167840 | 181386
10 | 40:18.37 | 4:40.03 | 181387 | 202389
11 | 44:58.40 | 2:57.50 | 202390 | 215714
12 | 47:56.15 | 3:26.45 | 215715 | 231209
13 | 51:22.60 | 3:21.52 | 231210 | 246336
14 | 54:44.37 | 7:54.05 | 246337 | 281891
Характеристики диапазона извлечения и сообщения об ошибках
Выбранный диапазон
Имя файла C:\EAC\Shirley Horn - Jazz 'Round Midnight.ape
Пиковый уровень 100.0 %
Качество диапазона 100.0 %
CRC теста 5C6215BE
CRC копии 5C6215BE
Копирование... OK
Ошибок не произошло
AccurateRip: сводка
Трек 1 нет в базе данных
Трек 2 нет в базе данных
Трек 3 нет в базе данных
Трек 4 нет в базе данных
Трек 5 нет в базе данных
Трек 6 нет в базе данных
Трек 7 нет в базе данных
Трек 8 нет в базе данных
Трек 9 нет в базе данных
Трек 10 нет в базе данных
Трек 11 нет в базе данных
Трек 12 нет в базе данных
Трек 13 нет в базе данных
Трек 14 нет в базе данных
Ни одного трека нет в базе AccurateRip
Конец отчёта
Any questions - support@pro-jazz.com
To become a power user - read FAQ.
01:30
499
Нет комментариев. Ваш будет первым!