Поиск

1999 Gato Barbieri — Planet Jazz: Gato Barbieri 1971-1975 {RCA Victor} [CD]

1999 Gato Barbieri — Planet Jazz: Gato Barbieri 1971-1975 {RCA Victor} [CD]
Стили:
Издатель (лейбл):

01 - El Gato 12:20
02 - Yesterdays 10:44
03 - Brasil 9:57 04 - Bahia 6:22
05 - Maria Domingas 9:24
06 - Tupac Amaru 4:14

Состав:
Лог проверки качества
Отчёт EAC об извлечении, выполненном 21. октября 2007, 20:55 для диска:
Gato Barbieri / Gato Barbieri
Дисковод: TSSTcorpCD/DVDW SH-S182D Adapter: 1 ID: 0
Режим чтения: Достоверный (C2: нет, Точный поток: да, Отключение кэша: да)
Комбинированное смещение чтения/записи: 0
Способность читать области Lead-in и Lead-out : Нет
Выходной формат: Внутренние WAV-операции
44.100 Гц; 16 бит; стерео
Другие параметры:
Заполнение пропущенных сэмплов тишиной : Да
Удаление блоков с тишиной в начале и конце : Нет
Встроенный Win32-интерфейс для Win NT/2000
Трек 1
Имя файла I:\Music lossless\00 - Selben Releases\B\Gato Barbieri\Planet Jazz\01 - El Gato.wav
Пиковый уровень 100.0 %
Качество трека 100.0 %
CRC теста 47800B44
CRC копии 47800B44
Копирование... OK
Трек 2
Имя файла I:\Music lossless\00 - Selben Releases\B\Gato Barbieri\Planet Jazz\02 - Yesterdays.wav
Пиковый уровень 100.0 %
Качество трека 99.9 %
CRC теста 951128F5
CRC копии 951128F5
Копирование... OK
Трек 3
Имя файла I:\Music lossless\00 - Selben Releases\B\Gato Barbieri\Planet Jazz\03 - Brasil.wav
Пиковый уровень 100.0 %
Качество трека 100.0 %
CRC теста C4A2E71F
CRC копии C4A2E71F
Копирование... OK
Трек 4
Имя файла I:\Music lossless\00 - Selben Releases\B\Gato Barbieri\Planet Jazz\04 - Bahia.wav
Пиковый уровень 100.0 %
Качество трека 99.9 %
CRC теста 380DC01C
CRC копии 380DC01C
Копирование... OK
Трек 5
Имя файла I:\Music lossless\00 - Selben Releases\B\Gato Barbieri\Planet Jazz\05 - Maria Domingas.wav
Пиковый уровень 100.0 %
Качество трека 100.0 %
CRC теста 7A2E9DB5
CRC копии 7A2E9DB5
Копирование... OK
Трек 6
Имя файла I:\Music lossless\00 - Selben Releases\B\Gato Barbieri\Planet Jazz\06 - Tupac Amaru.wav
Пиковый уровень 100.0 %
Качество трека 100.0 %
CRC теста 312A3C41
CRC копии 312A3C41
Копирование... OK
Ошибок не произошло
Конец отчёта
00:37
616
Нет комментариев. Ваш будет первым!