Поиск

1999 John Hicks Trio - Moanin' ~ Portrait Of Art Blakey (2018) {Venus} [DSD64 ISO]

1999 John Hicks Trio - Moanin' ~ Portrait Of Art Blakey (2018) {Venus} [DSD64 ISO]
Стили:
Дата записи диска:
19 октября 1992
Место записи:
Sear Sound Studio, New York, NY
Дата издания диска:
20 октября 1999
Дата переиздания диска:
18 апреля 2018
Издатель (лейбл):
Номер по каталогу:
VHGD-288
Носитель:
SACD
Формат:
DSD
Тип рипа:
image
Контейнер:
ISO (*.iso)
Количество каналов:
2.0
Разрядность/ЧД:
64 (2,8 MHz/1 Bit)
Битрейт аудио:
lossless
Время звучания:
00:44:42
Наличие сканов:
только обложка
Релизёр (источник):
jazzy

Треклист:

1. No Problem  07:25
2. Whisper Not  07:05
3. Nica's Dream  08:14
4. Moanin'  07:18
5. Blues March  07:13
6. A Night in Tunisia  07:26

Состав:
  • John Hicks — piano
  • Marcus Maclaurene — bass
  • Victor Lewis — drums
Лог проверки качества
foobar2000 1.6.8 / Dynamic Range Meter 1.1.1
log date: 2021-12-11 08:39:33
--------------------------------------------------------------------------------
Analyzed: JOHN HICKS TRIO / Moanin' Portrait Of Art Blakey
--------------------------------------------------------------------------------
DR         Peak         RMS     Duration Track
--------------------------------------------------------------------------------
DR8       -4.87 dB   -15.28 dB      7:25 01-No Problem
DR9       -4.70 dB   -15.83 dB      7:05 02-Whisper Not
DR9       -4.89 dB   -15.44 dB      8:15 03-Nica's Dream
DR10      -4.96 dB   -17.25 dB      7:19 04-Moanin'
DR9       -4.98 dB   -16.61 dB      7:13 05-Blues March
DR8       -4.36 dB   -15.43 dB      7:26 06-A Night In Tunisia
--------------------------------------------------------------------------------
Number of tracks:  6
Official DR value: DR9
Samplerate:        2822400 Hz / PCM Samplerate: 88200 Hz
Channels:          2
Bits per sample:   1
Bitrate:           5645 kbps
Codec:             DSD64
================================================================================
По всем вопросам пишите личное сообщение пользователю M0p94ok.
13:44
85
Нет комментариев. Ваш будет первым!