Поиск

2000 Art Tatum - 1949 {The Chronological Classics 1104} [CD]

2000 Art Tatum - 1949 {The Chronological Classics 1104} [CD]
Стили:
Дата издания диска:
13 мая 2000
Издатель (лейбл):
Номер по каталогу:
1104
Треклист:

01. How High the Moon (Hamilton, Lewis) - 2:25
02. Humoresque (Dvorak) - 3:47
03. Tatum Pole Boogie [Boogie Woogie] (Tatum) - 2:25
04. Someone to Watch Over Me (Gershwin, Gershwin) - 3:11
05. Yesterdays (Harbach, Kern) - 3:27
06. I Know That You Know (Caldwell, Youmans) - 2:42
07. Willow Weep for Me (Ronell) - 3:12
08. Gershwin Medley (Gershwin) - 3:04
09. The Kerry Dance (Molloy) - 1:12
10. Willow Weep for Me (Ronell) - 2:54
11. I Cover the Waterfront (Green, Heyman) - 2:32
12. Aunt Hagar's Blues (Brymn, Handy) - 2:42
13. Nice Work If You Can Get It (Gershwin, Gershwin) - 2:47
14. Someone to Watch Over Me (Gershwin, Gershwin) - 2:50
15. Dardanella (Bernard, Black, Fisher) - 2:50
16. Time on My Hands (Adamson, Gordon, Youmans) - 3:04
17. Sweet Lorraine (Burwell, Parish) - 2:39
18. Somebody Loves Me (DeSylva, Gershwin, MacDonald) - 2:46
19. Don't Blame Me (Fields, McHugh) - 2:54
20. My Heart Stood Still (Hart, Rodgers) - 3:09
21. You Took Advantage of Me (Hart, Rodgers) - 3:13
22. I Gotta Right to Sing the Blues (Arlen, Koehler) - 2:56
23. How High the Moon (Hamilton, Lewis) - 3:03
24. Makin' Whoopee (Donaldson, Kahn) - 2:42

Состав:
Лог создания рипа
EAC extraction logfile from 14. March 2008, 14:15 for CD
Art Tatum / 1949
Used drive  : HL-DT-STCDRW/DVD GCC4482   Adapter: 1  ID: 0
Read mode   : Secure with NO C2, accurate stream, disable cache
Read offset correction : 6
Overread into Lead-In and Lead-Out : No
Used output format : C:\Eac\Codecs\flac.exe   (User Defined Encoder)
                     320 kBit/s
                     Additional command line options : -8 -V -T "artist=%a" -T "title=%t" -T "album=%g" -T "date=%y" -T "tracknumber=%n" -T "genre=%m" -T "comment=EAC Flac 1.1.2 -8" %s
Other options      :
    Fill up missing offset samples with silence : Yes
    Delete leading and trailing silent blocks : No
    Installed external ASPI interface
Track  1
     Filename C:\Documents and Settings\tatum\01 - How High The Moon.wav
     Pre-gap length  0:00:02.42
     Peak level 91.2 %
     Track quality 100.0 %
     Test CRC CA141830
     Copy CRC CA141830
     Copy OK
Track  2
     Filename C:\Documents and Settings\tatum\02 - Humoresque.wav
     Pre-gap length  0:00:01.60
     Peak level 85.3 %
     Track quality 100.0 %
     Test CRC 03645DF7
     Copy CRC 03645DF7
     Copy OK
Track  3
     Filename C:\Documents and Settings\tatum\03 - Tatum Pole Boogie [Boogie Woogie].wav
     Pre-gap length  0:00:01.60
     Peak level 100.0 %
     Track quality 100.0 %
     Test CRC C662E4BD
     Copy CRC C662E4BD
     Copy OK
Track  4
     Filename C:\Documents and Settings\tatum\04 - Someone To Watch Over Me.wav
     Pre-gap length  0:00:01.60
     Peak level 100.0 %
     Track quality 100.0 %
     Test CRC B4145CF2
     Copy CRC B4145CF2
     Copy OK
Track  5
     Filename C:\Documents and Settings\tatum\05 - Yesterdays.wav
     Pre-gap length  0:00:01.60
     Peak level 100.0 %
     Track quality 100.0 %
     Test CRC 5D03E032
     Copy CRC 5D03E032
     Copy OK
Track  6
     Filename C:\Documents and Settings\tatum\06 - I Know That You Know.wav
     Pre-gap length  0:00:01.60
     Peak level 88.3 %
     Track quality 100.0 %
     Test CRC 68A58FF0
     Copy CRC 68A58FF0
     Copy OK
Track  7
     Filename C:\Documents and Settings\tatum\07 - Willow Weep For Me.wav
     Pre-gap length  0:00:01.60
     Peak level 96.5 %
     Track quality 100.0 %
     Test CRC 69D4C223
     Copy CRC 69D4C223
     Copy OK
Track  8
     Filename C:\Documents and Settings\tatum\08 - Gershwin Medley.wav
     Pre-gap length  0:00:01.60
     Peak level 91.2 %
     Track quality 100.0 %
     Test CRC 8DDA36F9
     Copy CRC 8DDA36F9
     Copy OK
Track  9
     Filename C:\Documents and Settings\tatum\09 - The Kerry Dance.wav
     Pre-gap length  0:00:01.60
     Peak level 79.3 %
     Track quality 100.0 %
     Test CRC A49D8AC4
     Copy CRC A49D8AC4
     Copy OK
Track 10
     Filename C:\Documents and Settings\tatum\10 - Willow Weep For Me.wav
     Pre-gap length  0:00:01.60
     Peak level 95.5 %
     Track quality 99.9 %
     Test CRC 1B8E5E97
     Copy CRC 1B8E5E97
     Copy OK
Track 11
     Filename C:\Documents and Settings\tatum\11 - I Cover The Waterfront.wav
     Pre-gap length  0:00:01.60
     Peak level 76.4 %
     Track quality 100.0 %
     Test CRC 07B6FA9A
     Copy CRC 07B6FA9A
     Copy OK
Track 12
     Filename C:\Documents and Settings\tatum\12 - Aunt Hagar's Blues.wav
     Pre-gap length  0:00:01.60
     Peak level 100.0 %
     Track quality 100.0 %
     Test CRC A8E0040B
     Copy CRC A8E0040B
     Copy OK
Track 13
     Filename C:\Documents and Settings\tatum\13 - Nice Work If You Can Get It.wav
     Pre-gap length  0:00:01.60
     Peak level 100.0 %
     Track quality 100.0 %
     Test CRC 6581D627
     Copy CRC 6581D627
     Copy OK
Track 14
     Filename C:\Documents and Settings\tatum\14 - Someone To Watch Over Me.wav
     Pre-gap length  0:00:01.60
     Peak level 95.1 %
     Track quality 100.0 %
     Test CRC B27541B3
     Copy CRC B27541B3
     Copy OK
Track 15
     Filename C:\Documents and Settings\tatum\15 - Dardanella.wav
     Pre-gap length  0:00:01.60
     Peak level 97.6 %
     Track quality 100.0 %
     Test CRC D5A919B9
     Copy CRC D5A919B9
     Copy OK
Track 16
     Filename C:\Documents and Settings\tatum\16 - Time On My Hands.wav
     Pre-gap length  0:00:01.60
     Peak level 96.6 %
     Track quality 100.0 %
     Test CRC 295E5080
     Copy CRC 295E5080
     Copy OK
Track 17
     Filename C:\Documents and Settings\tatum\17 - Sweet Lorraine.wav
     Pre-gap length  0:00:01.60
     Peak level 90.5 %
     Track quality 100.0 %
     Test CRC 4FD15A05
     Copy CRC 4FD15A05
     Copy OK
Track 18
     Filename C:\Documents and Settings\tatum\18 - Somebody Loves Me.wav
     Pre-gap length  0:00:01.60
     Peak level 95.7 %
     Track quality 100.0 %
     Test CRC A12F30F2
     Copy CRC A12F30F2
     Copy OK
Track 19
     Filename C:\Documents and Settings\tatum\19 - Don't Blame Me.wav
     Pre-gap length  0:00:01.60
     Peak level 83.8 %
     Track quality 100.0 %
     Test CRC 22560134
     Copy CRC 22560134
     Copy OK
Track 20
     Filename C:\Documents and Settings\tatum\20 - My Heart Stood Still.wav
     Pre-gap length  0:00:01.60
     Peak level 71.7 %
     Track quality 100.0 %
     Test CRC 8858CE2D
     Copy CRC 8858CE2D
     Copy OK
Track 21
     Filename C:\Documents and Settings\tatum\21 - You Took Advantage Of Me.wav
     Pre-gap length  0:00:01.60
     Peak level 81.8 %
     Track quality 99.9 %
     Test CRC 17A88459
     Copy CRC 17A88459
     Copy OK
Track 22
     Filename C:\Documents and Settings\tatum\22 - I Gotta Right To Sing The Blues.wav
     Pre-gap length  0:00:01.60
     Peak level 68.1 %
     Track quality 100.0 %
     Test CRC E572513E
     Copy CRC E572513E
     Copy OK
Track 23
     Filename C:\Documents and Settings\tatum\23 - How High The Moon.wav
     Pre-gap length  0:00:01.60
     Peak level 100.0 %
     Track quality 100.0 %
     Test CRC 663A43E5
     Copy CRC 663A43E5
     Copy OK
Track 24
     Filename C:\Documents and Settings\tatum\24 - Makin' Whoopee.wav
     Pre-gap length  0:00:01.60
     Peak level 87.9 %
     Track quality 99.9 %
     Test CRC 9DBB2D93
     Copy CRC 9DBB2D93
     Copy OK
No errors occured
End of status report
Лог проверки качества
4061652072 25627436 01 - How High The Moon.wav
3585030314 40080476 02 - Humoresque.wav
321936839 25752092 03 - Tatum Pole Boogie [Boogie Woogie].wav
1673740766 33751244 04 - Someone To Watch Over Me.wav
1011715069 36597164 05 - Yesterdays.wav
2065723648 28680332 06 - I Know That You Know.wav
3180226133 33939404 07 - Willow Weep For Me.wav
2176934362 32476460 08 - Gershwin Medley.wav
2406250004 12844316 09 - The Kerry Dance.wav
478754909 30752444 10 - Willow Weep For Me.wav
3770301102 26864588 11 - I Cover The Waterfront.wav
394755449 28652108 12 - Aunt Hagar's Blues.wav
3838455251 29571740 13 - Nice Work If You Can Get It.wav
2863555574 30006860 14 - Someone To Watch Over Me.wav
2684547095 30082124 15 - Dardanella.wav
2421808700 32542316 16 - Time On My Hands.wav
2713585132 28099388 17 - Sweet Lorraine.wav
2709199463 29371820 18 - Somebody Loves Me.wav
726536483 30825356 19 - Don't Blame Me.wav
455497525 33429020 20 - My Heart Stood Still.wav
655761378 34202828 21 - You Took Advantage Of Me.wav
3279036255 31109948 22 - I Gotta Right To Sing The Blues.wav
3206575614 32380028 23 - How High The Moon.wav
2484139738 28701500 24 - Makin' Whoopee.wav
auCDtect: CD records authenticity detector, version 0.8.2
Copyright (c) 2004 Oleg Berngardt. All rights reserved.
Copyright (c) 2004 Alexander Djourik. All rights reserved.
------------------------------------------------------------
Processing file: [01 - How High The Moon.wav]
------------------------------------------------------------
This track looks like CDDA with probability 100%
------------------------------------------------------------
Processing file: [02 - Humoresque.wav]
------------------------------------------------------------
This track looks like CDDA with probability 100%
------------------------------------------------------------
Processing file: [03 - Tatum Pole Boogie [Boogie Woogie].wav]
------------------------------------------------------------
This track looks like CDDA with probability 100%
------------------------------------------------------------
Processing file: [04 - Someone To Watch Over Me.wav]
------------------------------------------------------------
This track looks like CDDA with probability 100%
------------------------------------------------------------
Processing file: [05 - Yesterdays.wav]
------------------------------------------------------------
This track looks like CDDA with probability 100%
------------------------------------------------------------
Processing file: [06 - I Know That You Know.wav]
------------------------------------------------------------
This track looks like CDDA with probability 100%
------------------------------------------------------------
Processing file: [07 - Willow Weep For Me.wav]
------------------------------------------------------------
This track looks like CDDA with probability 100%
------------------------------------------------------------
Processing file: [08 - Gershwin Medley.wav]
------------------------------------------------------------
This track looks like CDDA with probability 100%
------------------------------------------------------------
Processing file: [09 - The Kerry Dance.wav]
------------------------------------------------------------
This track looks like CDDA with probability 100%
------------------------------------------------------------
Processing file: [10 - Willow Weep For Me.wav]
------------------------------------------------------------
This track looks like CDDA with probability 99%
------------------------------------------------------------
Processing file: [11 - I Cover The Waterfront.wav]
------------------------------------------------------------
This track looks like CDDA with probability 100%
------------------------------------------------------------
Processing file: [12 - Aunt Hagar's Blues.wav]
------------------------------------------------------------
This track looks like CDDA with probability 100%
------------------------------------------------------------
Processing file: [13 - Nice Work If You Can Get It.wav]
------------------------------------------------------------
This track looks like CDDA with probability 100%
------------------------------------------------------------
Processing file: [14 - Someone To Watch Over Me.wav]
------------------------------------------------------------
This track looks like CDDA with probability 100%
------------------------------------------------------------
Processing file: [15 - Dardanella.wav]
------------------------------------------------------------
This track looks like CDDA with probability 99%
------------------------------------------------------------
Processing file: [16 - Time On My Hands.wav]
------------------------------------------------------------
This track looks like CDDA with probability 100%
------------------------------------------------------------
Processing file: [17 - Sweet Lorraine.wav]
------------------------------------------------------------
This track looks like CDDA with probability 92%
------------------------------------------------------------
Processing file: [18 - Somebody Loves Me.wav]
------------------------------------------------------------
This track looks like CDDA with probability 100%
------------------------------------------------------------
Processing file: [19 - Don't Blame Me.wav]
------------------------------------------------------------
This track looks like CDDA with probability 99%
------------------------------------------------------------
Processing file: [20 - My Heart Stood Still.wav]
------------------------------------------------------------
This track looks like CDDA with probability 100%
------------------------------------------------------------
Processing file: [21 - You Took Advantage Of Me.wav]
------------------------------------------------------------
This track looks like CDDA with probability 99%
------------------------------------------------------------
Processing file: [22 - I Gotta Right To Sing The Blues.wav]
------------------------------------------------------------
This track looks like CDDA with probability 100%
------------------------------------------------------------
Processing file: [23 - How High The Moon.wav]
------------------------------------------------------------
This track looks like CDDA with probability 100%
------------------------------------------------------------
Processing file: [24 - Makin' Whoopee.wav]
------------------------------------------------------------
This track looks like CDDA with probability 99%
------------------------------------------------------------
Final Conclusion:
------------------------------------------------------------
These tracks looks like CDDA with probability 100%
10:25
789
Нет комментариев. Ваш будет первым!