Поиск

2000 Stanley Cowell Trio - Dancers In Love (2018) {Venus} [DSD64 ISO]

2000 Stanley Cowell Trio - Dancers In Love (2018) {Venus} [DSD64 ISO]
Стили:
Дата записи диска:
17 июня 1999
Место записи:
Sound on Sound, New York, NY
Дата переиздания диска:
16 мая 2016
Издатель (лейбл):
Номер по каталогу:
VHGD-290
Носитель:
SACD
Формат:
DSD
Тип рипа:
image
Контейнер:
ISO (*.iso)
Количество каналов:
2.0
Разрядность/ЧД:
64 (2,8 MHz/1 Bit)
Битрейт аудио:
lossless
Время звучания:
00:49:26
Наличие сканов:
только обложка
Релизёр (источник):
jazzy

Треклист:

1. A Whole New World  07:53
2. Ole Texas  05:24
3. Charleston Rag  04:30
4. I Never Dreamed  06:35
5. St. Croix  04:52
6. Confirmation  06:37
7. Dancers In Love  02:20
8. But Not for Me  06:29
9. As the Sun Goes Down  04:46

Состав:
  • Tarus Mateen     Bass
  • Stanley Cowell     Composer, Piano
  • Nasheet Waits     Drums
  • Jason Standard     Engineer
  • Tetsuo Hara     Mastering, Mixing, Producer
Лог проверки качества
foobar2000 1.6.8 / Dynamic Range Meter 1.1.1
log date: 2021-12-15 08:05:57
--------------------------------------------------------------------------------
Analyzed: STANLEY COWELL TRIO / Dancers In Love
--------------------------------------------------------------------------------
DR         Peak         RMS     Duration Track
--------------------------------------------------------------------------------
DR7       -4.62 dB   -13.83 dB      7:53 01-A Whole New World
DR7       -4.75 dB   -14.40 dB      5:24 02-Ole Texas
DR7       -4.81 dB   -14.04 dB      4:30 03-Charleston Rag
DR9       -5.45 dB   -17.10 dB      6:35 04-I Never Dreamed
DR8       -4.95 dB   -14.64 dB      4:52 05-St. Croix
DR8       -5.30 dB   -15.87 dB      6:37 06-Confirmation
DR8       -4.55 dB   -14.35 dB      2:20 07-Dancers In Love
DR7       -4.86 dB   -15.21 dB      6:29 08-But Not For Me
DR6       -4.83 dB   -13.42 dB      4:46 09-As The Sun Goes Down
--------------------------------------------------------------------------------
Number of tracks:  9
Official DR value: DR8
Samplerate:        2822400 Hz / PCM Samplerate: 88200 Hz
Channels:          2
Bits per sample:   1
Bitrate:           5645 kbps
Codec:             DSD64
================================================================================
По всем вопросам пишите личное сообщение пользователю M0p94ok.
11:28
89
Нет комментариев. Ваш будет первым!