Поиск

2001 Fone Jazz Makers - Girl Of My Dreams {Fone} [DSD64 ISO]

2001 Fone Jazz Makers - Girl Of My Dreams {Fone} [DSD64 ISO]
Дата издания диска:
1 января 2001
Издатель (лейбл):
Номер по каталогу:
014SACD
Носитель:
SACD
Формат:
DSD
Тип рипа:
image
Контейнер:
ISO (*.iso)
Количество каналов:
2.0
Разрядность/ЧД:
64 (2,8 MHz/1 Bit)
Битрейт аудио:
lossless
Время звучания:
01:03:39
Наличие сканов:
да

Треклист:

01. Darktown Strutters' Ball  04:25
02. Big Bad Bully  03:23
03. Nobody Knows the Way I Feel This Morning  05:18
04. Boodie-Oolie  04:29
05. Glory of Love  04:17
06. Shake That Thing  04:02
07. Girl of My Dreams  03:50
08. Rosetta  03:05
09. Wabash Blues  04:00
10. Alexander's Ragtime Band  04:17
11. Sister Kate  04:58
12. Weary Blues  04:53
13. Someday Sweetheart  03:08
14. Canal Street Blues  03:52
15. Mama Don't 'Low  05:28

Состав:
  • Banjo – Giorgio Alderighi
  • Clarinet, Vocals – Vittorio Castelli
  • Sousaphone – Nino Frasio
  • Tenor Saxophone, Vocals – Andrea Sirna
  • Trumpet – Giacomo Marson
Лог проверки качества
foobar2000 1.6.8 / Dynamic Range Meter 1.1.1
log date: 2022-01-08 16:24:53
--------------------------------------------------------------------------------
Analyzed: Vittorio Castelli, Andrea Sirna, Giacomo Marson, Nino Frasio, Giorgio Alderighi / Girl Of My Dream
--------------------------------------------------------------------------------
DR         Peak         RMS     Duration Track
--------------------------------------------------------------------------------
DR16      -9.58 dB   -30.82 dB      4:24 01-Darktown Strutters' Ball (S. Brooks)
DR15     -11.03 dB   -31.54 dB      3:23 02-Big Bad Bully (trad.)
DR18      -9.06 dB   -32.86 dB      5:18 03-Nobody Knows the Way I Feel This Morning (T. Delaney)
DR17      -8.54 dB   -31.38 dB      4:30 04-Boodie-Oolie (V. Castelli - G. Marson)
DR17     -11.09 dB   -33.22 dB      4:18 05-Glory of Love (B. Hill)
DR18      -9.68 dB   -30.96 dB      4:03 06-Shake That Thing (C. Jackson)
DR16     -11.64 dB   -32.86 dB      3:50 07-Girl of My Dreams (S. Clapp)
DR17      -7.88 dB   -29.60 dB      3:05 08-Rosetta (E. Hines - H. Woode)
DR16     -12.96 dB   -31.39 dB      4:00 09-Wabash Blues (F. Meinken - D. Ringle)
DR16      -9.58 dB   -31.94 dB      4:18 10-Alexander's Ragtime Band (I. Berlin)
DR16      -8.79 dB   -30.80 dB      4:58 11-Sister Kate (A. J. Piron)
DR18      -8.19 dB   -30.76 dB      4:54 12-Weary Blues (A. Matthews)
DR15     -15.84 dB   -35.05 dB      3:09 13-Someday Sweetheart (Spikes bros.)
DR16      -9.41 dB   -30.87 dB      3:53 14-Canal Street Blues (J. Oliver)
DR16      -9.58 dB   -31.45 dB      5:37 15-Mama Don't 'Low (trad.)
--------------------------------------------------------------------------------
Number of tracks:  15
Official DR value: DR16
Samplerate:        2822400 Hz / PCM Samplerate: 88200 Hz
Channels:          2
Bits per sample:   1
Bitrate:           5645 kbps
Codec:             DSD64
================================================================================
По всем вопросам пишите личное сообщение пользователю M0p94ok.
08:30
102
Нет комментариев. Ваш будет первым!