Вы используете незарегистрированную версию компонента "Вкладки"!

Поиск

2002 Harold Mabern Trio - Falling In Love With Love (2017) {Venus} [DSD64 ISO]

2002 Harold Mabern Trio - Falling In Love With Love (2017) {Venus} [DSD64 ISO]
Стили:
Дата записи диска:
1 октября 2001
Место записи:
The Studio, New York City, NY, USA
Дата переиздания диска:
18 января 2017
Издатель (лейбл):
Номер по каталогу:
VHGD-198
Носитель:
SACD
Формат:
DSD
Тип рипа:
image
Контейнер:
ISO (*.iso)
Количество каналов:
2.0
Разрядность/ЧД:
64 (2,8 MHz/1 Bit)
Битрейт аудио:
lossless
Время звучания:
00:56:04
Наличие сканов:
да
Лог проверки качества
foobar2000 1.6.4 / Dynamic Range Meter 1.1.1
log date: 2021-07-06 16:06:59

--------------------------------------------------------------------------------
Analyzed: HAROLD MABERN TRIO / Falling In Love With Love
--------------------------------------------------------------------------------

DR         Peak         RMS     Duration Track
--------------------------------------------------------------------------------
DR7       -4.61 dB   -12.81 dB      5:13 01-For Every Man, There's A Woman
DR7       -4.73 dB   -14.00 dB      5:03 02-Falling In Love With Love
DR7       -4.23 dB   -12.52 dB      6:03 03-Get Back Jack, Do It Again
DR9       -4.75 dB   -16.51 dB      6:48 04-Why Did I Choose You?
DR7       -4.30 dB   -12.81 dB      5:55 05-Kelly Colors
DR8       -4.79 dB   -14.85 dB      5:00 06-Someday My Prince Will Come
DR7       -4.68 dB   -12.71 dB      4:50 07-You Say You Care
DR7       -4.46 dB   -13.27 dB      5:53 08-The Chess Players
DR10      -4.81 dB   -17.81 dB      5:46 09-Only One
DR6       -4.33 dB   -11.05 dB      5:32 10-Summertime
--------------------------------------------------------------------------------

Number of tracks:  10
Official DR value: DR7

Samplerate:        2822400 Hz / PCM Samplerate: 88200 Hz
Channels:          2
Bits per sample:   1
Bitrate:           5645 kbps
Codec:             DSD64
================================================================================
Any questions - support@pro-jazz.com. Есть вопросы - support@pro-jazz.com
21:53
102
Нет комментариев. Ваш будет первым!