Вы используете незарегистрированную версию компонента "Вкладки"!

Поиск

2002 Harold Mabern Trio - Kiss Of Fire (2015) {Venus} [DSD64 ISO]

2002 Harold Mabern Trio - Kiss Of Fire (2015) {Venus} [DSD64 ISO]
Стили:
Дата записи диска:
2 декабря 2001
Место записи:
BST-Studio, Tokyo, Japan
Дата издания диска:
27 февраля 2002
Издатель (лейбл):
Номер по каталогу:
VHGD-69
Носитель:
SACD
Формат:
DSD
Тип рипа:
image
Контейнер:
ISO (*.iso)
Количество каналов:
2.0
Разрядность/ЧД:
64 (2,8 MHz/1 Bit)
Битрейт аудио:
lossless
Время звучания:
01:05:30
Наличие сканов:
да
Лог проверки качества
foobar2000 1.6.4 / Dynamic Range Meter 1.1.1
log date: 2021-07-06 16:11:09

--------------------------------------------------------------------------------
Analyzed: Harold Mabern Trio / KISS OF FIRE
--------------------------------------------------------------------------------

DR         Peak         RMS     Duration Track
--------------------------------------------------------------------------------
DR6       -4.83 dB   -12.52 dB      6:31 01-How Insensitive
DR8       -4.92 dB   -14.36 dB      5:58 02-It's A Lonesome Old Town
DR7       -5.47 dB   -15.00 dB      7:48 03-Nancy (With The Laughing Face)
DR8       -4.93 dB   -15.02 dB      6:20 04-Bag's Groove
DR7       -4.65 dB   -13.22 dB      5:53 05-Blue Bossa
DR8       -5.19 dB   -14.84 dB      8:26 06-Black Orpheus
DR6       -4.53 dB   -12.32 dB      9:13 07-Cheese Cake
DR7       -4.46 dB   -13.31 dB      5:43 08-Recado Bossa Nova
DR7       -4.51 dB   -12.64 dB      4:57 09-Kiss Of Fire
DR6       -4.97 dB   -11.71 dB      4:40 10-Brazil
--------------------------------------------------------------------------------

Number of tracks:  10
Official DR value: DR7

Samplerate:        2822400 Hz / PCM Samplerate: 88200 Hz
Channels:          2
Bits per sample:   1
Bitrate:           5645 kbps
Codec:             DSD64
================================================================================
Any questions - support@pro-jazz.com. Есть вопросы - support@pro-jazz.com
17:26
92
Нет комментариев. Ваш будет первым!