Поиск

2003, 2007 Tevet Sela - Collection [2CD]

2003, 2007 Tevet Sela - Collection [2CD]
Стили:
Треклист:
Страна исполнителя: Israel
Жанр: Fusion, Smooth, Funk || Аудио кодек: FLAC || Тип рипа: (tracks + .cue) || Битрейт аудио: lossless || Включает: Full artwork || Продолжительность: 58:23 + 1:02:35
 
 
Tevet Sela - Tevet Sela - 2003
Год издания: 2003
Страна - производитель диска: Israel
Издатель (лейбл): Self released
Номер по каталогу: No number
Источник (релизер): Моя коллекция, мой рип
Живущий ныне в Монреале израильтянин (саксофонист и басист), исполняющий со своим квартетом свою музыку - джаз-фанк с ближне-восточными и африканскими элементами. Начал играть классику на рояле в 7 лет, в 12 пришел к джазу и саксофону, в 16 начал писать музыку, работать профессионально и постепенно стал очень востребованным сессионным музыкантом. В 2000 собрал свой состав и начал записывать и исполнять свою музыку, этот, дебютный альбом, вышел весной 2003.
На диске (и в логе, разумеется) есть видимый дефект, приходящийся на 9 дорожку, но ЕАС смог его убрать из звучания - дефект не слышен
Трэклист:
1. The prophecy 7:35
2. Just for a moment 5:35
З. Опе inch journey 6:26
4. I may cry 4:56
5. Dream fields 7:22
6. Streetwise 2.05
7. Smoken blues 5:24
8. Close to you 6:11
9. Uncle crocodile 5:42
10. One light 6.30
All compositions written by Tevet Sela ©
Produced by Tevet Sela
Состав:
Tevet Sela - Saxophones, Bass (5,7,9), Programming (8)
Adam Gorlizki - Piano, Keyboards
Michael Avgil - Drums
Oded Kafri - Drums (1)
Ben Hendler - Bass(2,l0)
Yossi Fine - Bass(3)
Jonathan Levy - Bass (1)
Amos Ben David - Percussion (2,7)
Track 1,2,4,5,6,9,10 recorded at Hamon studio, mixed by Yossi Hason and Tevet Sela
Track 3 recorded at Tomix and Gorlizki studios, mixed by Tevet Sela and Adam Gorlizki
Track 7 recorded at Tomix and Benjamini Studios, mixed by Nir Benjamini
Track 8 recorded at Ron Klein Studio, mixed by Nir Benjamini
Mastered by Tali Cuts
 
 
Содержание индексной карты (.CUE):
REM GENRE Jazz
REM DISCID 9C0DAF0A
REM COMMENT "ExactAudioCopy v0.99pb5"
PERFORMER "Tevet Sela"
TITLE "Tevet Sela"
FILE "01 - The prophecy.wav" WAVE
  TRACK 01 AUDIO
    TITLE "The prophecy"
    PERFORMER "Tevet Sela"
    INDEX 01 00:00:00
FILE "02 - Just for a moment.wav" WAVE
  TRACK 02 AUDIO
    TITLE "Just for a moment"
    PERFORMER "Tevet Sela"
    INDEX 01 00:00:00
FILE "03 - One intch journey.wav" WAVE
  TRACK 03 AUDIO
    TITLE "One intch journey"
    PERFORMER "Tevet Sela"
    INDEX 01 00:00:00
FILE "04 - I may cry.wav" WAVE
  TRACK 04 AUDIO
    TITLE "I may cry"
    PERFORMER "Tevet Sela"
    INDEX 01 00:00:00
FILE "05 - Dreams field.wav" WAVE
  TRACK 05 AUDIO
    TITLE "Dreams field"
    PERFORMER "Tevet Sela"
    INDEX 01 00:00:00
FILE "06 - Streetwise.wav" WAVE
  TRACK 06 AUDIO
    TITLE "Streetwise"
    PERFORMER "Tevet Sela"
    INDEX 01 00:00:00
FILE "07 - Smoken blues.wav" WAVE
  TRACK 07 AUDIO
    TITLE "Smoken blues"
    PERFORMER "Tevet Sela"
    INDEX 01 00:00:00
FILE "08 - Close to you.wav" WAVE
  TRACK 08 AUDIO
    TITLE "Close to you"
    PERFORMER "Tevet Sela"
    INDEX 01 00:00:00
FILE "09 - Uncle crocodile.wav" WAVE
  TRACK 09 AUDIO
    TITLE "Uncle crocodile"
    PERFORMER "Tevet Sela"
    INDEX 01 00:00:00
FILE "10 - One light.wav" WAVE
  TRACK 10 AUDIO
    TITLE "One light"
    PERFORMER "Tevet Sela"
    INDEX 01 00:00:00
 
 
Лог создания рипа
Exact Audio Copy V0.99 prebeta 5 from 4. May 2009
EAC extraction logfile from 13. March 2011, 18:46
Tevet Sela / Tevet Sela
Used drive  : HL-DT-STDVDRAM GSA-T50N   Adapter: 1  ID: 0
Read mode               : Secure
Utilize accurate stream : Yes
Defeat audio cache      : Yes
Make use of C2 pointers : No
Read offset correction                      : 667
Overread into Lead-In and Lead-Out          : No
Fill up missing offset samples with silence : Yes
Delete leading and trailing silent blocks   : No
Null samples used in CRC calculations       : Yes
Used interface                              : Native Win32 interface for Win NT & 2000
Gap handling                                : Left out
Used output format              : User Defined Encoder
Selected bitrate                : 1024 kBit/s
Quality                         : High
Add ID3 tag                     : No
Command line compressor         : C:\Program Files\Exact Audio Copy\Flac\flac.exe
Additional command line options : -8 -V -T "ARTIST=%a" -T "TITLE=%t" -T "ALBUM=%g" -T "DATE=%y" -T "TRACKNUMBER=%n" -T "GENRE=%m" -T "COMMENT=EAC FLAC -8" %s
TOC of the extracted CD
     Track |   Start  |  Length  | Start sector | End sector
    ---------------------------------------------------------
        1  |  0:00.00 |  7:37.29 |         0    |    34303
        2  |  7:37.29 |  5:38.60 |     34304    |    59713
        3  | 13:16.14 |  6:31.02 |     59714    |    89040
        4  | 19:47.16 |  4:59.10 |     89041    |   111475
        5  | 24:46.26 |  7:24.26 |    111476    |   144801
        6  | 32:10.52 |  2:09.05 |    144802    |   154481
        7  | 34:19.57 |  5:29.00 |    154482    |   179156
        8  | 39:48.57 |  6:18.29 |    179157    |   207535
        9  | 46:07.11 |  5:46.17 |    207536    |   233502
       10  | 51:53.28 |  6:30.29 |    233503    |   262781
Track  1
     Filename C:\Musicgate's rips\Tevet Sela - Tevet Sela\01 - The prophecy.wav
     Pre-gap length  0:00:02.00
     Peak level 100.0 %
     Track quality 100.0 %
     Copy CRC 72A4992B
     Accurately ripped (confidence 1)  [6AADBA99]
     Copy OK
Track  2
     Filename C:\Musicgate's rips\Tevet Sela - Tevet Sela\02 - Just for a moment.wav
     Peak level 100.0 %
     Track quality 100.0 %
     Copy CRC 46431385
     Accurately ripped (confidence 1)  [D618DBB7]
     Copy OK
Track  3
     Filename C:\Musicgate's rips\Tevet Sela - Tevet Sela\03 - One intch journey.wav
     Peak level 99.6 %
     Track quality 100.0 %
     Copy CRC 072297E2
     Accurately ripped (confidence 1)  [BF0B9857]
     Copy OK
Track  4
     Filename C:\Musicgate's rips\Tevet Sela - Tevet Sela\04 - I may cry.wav
     Peak level 82.8 %
     Track quality 100.0 %
     Copy CRC F1B01611
     Cannot be verified as accurate (confidence 1)  [35CD0B92], AccurateRip returned [EB860AF5]
     Copy OK
Track  5
     Filename C:\Musicgate's rips\Tevet Sela - Tevet Sela\05 - Dreams field.wav
     Peak level 99.9 %
     Track quality 100.0 %
     Copy CRC E55A7DA8
     Cannot be verified as accurate (confidence 1)  [7B4A477F], AccurateRip returned [2629E91A]
     Copy OK
Track  6
     Filename C:\Musicgate's rips\Tevet Sela - Tevet Sela\06 - Streetwise.wav
     Peak level 99.6 %
     Track quality 99.8 %
     Copy CRC 04B3BD85
     Cannot be verified as accurate (confidence 1)  [554EE561], AccurateRip returned [44C2BDFA]
     Copy OK
Track  7
     Filename C:\Musicgate's rips\Tevet Sela - Tevet Sela\07 - Smoken blues.wav
     Peak level 100.0 %
     Track quality 99.9 %
     Copy CRC 54BF11D9
     Cannot be verified as accurate (confidence 1)  [D9015C4C], AccurateRip returned [A9257184]
     Copy OK
Track  8
     Filename C:\Musicgate's rips\Tevet Sela - Tevet Sela\08 - Close to you.wav
     Peak level 99.6 %
     Track quality 99.6 %
     Copy CRC E246F64B
     Cannot be verified as accurate (confidence 1)  [6A5CEF53], AccurateRip returned [1AD84006]
     Copy OK
Track  9
     Filename C:\Musicgate's rips\Tevet Sela - Tevet Sela\09 - Uncle crocodile.wav
     Suspicious position 0:02:27
     Peak level 100.0 %
     Track quality 99.2 %
     Copy CRC C5768653
     Cannot be verified as accurate (confidence 1)  [AF36BF5C], AccurateRip returned [3F862083]
     Copy finished
Track 10
     Filename C:\Musicgate's rips\Tevet Sela - Tevet Sela\10 - One light.wav
     Peak level 100.0 %
     Track quality 99.8 %
     Copy CRC 10D12F21
     Cannot be verified as accurate (confidence 1)  [DDA6DE88], AccurateRip returned [E6EB922B]
     Copy OK
 3 track(s) accurately ripped
 7 track(s) could not be verified as accurate
Some tracks could not be verified as accurate
There were errors
End of status report
 
Tevet Sela Quartet - Coming True - 2007
Дата записи: Kitcha Studios, 2007
Год издания: December 17, 2007
Страна - производитель диска: Israel
Издатель (лейбл): Self released
Номер по каталогу: No number
Источник (релизер): Моя коллекция, мой рип
Трэклист:
1. Existence (8:28)
2. Following Your Back (6:43)
3. Coming True (4:51)
4. Outside (5:30)
5. Naked Soul (6:50)
6. Small Steps (5:34)
7. Late Bloomer (5:29)
8. Earth Hymn (6:17)
9. My Weather (3:38)
10. Peace Club (3:58)
11. Night Creature (5:14)
All compositions by Tevet Sela except (11) by Tevet Sela and Adam Gorlizki
Personel info:
Adam Gorlizki - piano, keyboards
Shay Khamany - bass
Michael Avgil - drums
Tevet Sela - saxophones, bass (2)
About albume:
 
 
Содержание индексной карты (.CUE):
REM GENRE "Israeli Jazz"
REM DATE 2007
REM DISCID 920EAB0B
REM COMMENT "ExactAudioCopy v1.0b2"
CATALOG 0000000000000
PERFORMER "Tevet Sela Quartet"
TITLE "Coming True"
FILE "01 - Existence.wav" WAVE
  TRACK 01 AUDIO
    TITLE "Existence"
    PERFORMER "Tevet Sela Quartet"
    INDEX 01 00:00:00
FILE "02 - Following Your Back.wav" WAVE
  TRACK 02 AUDIO
    TITLE "Following Your Back"
    PERFORMER "Tevet Sela Quartet"
    INDEX 01 00:00:00
FILE "03 - Coming True.wav" WAVE
  TRACK 03 AUDIO
    TITLE "Coming True"
    PERFORMER "Tevet Sela Quartet"
    INDEX 01 00:00:00
FILE "04 - Outside.wav" WAVE
  TRACK 04 AUDIO
    TITLE "Outside"
    PERFORMER "Tevet Sela Quartet"
    INDEX 01 00:00:00
FILE "05 - Naked Soul.wav" WAVE
  TRACK 05 AUDIO
    TITLE "Naked Soul"
    PERFORMER "Tevet Sela Quartet"
    INDEX 01 00:00:00
FILE "06 - Small Steps.wav" WAVE
  TRACK 06 AUDIO
    TITLE "Small Steps"
    PERFORMER "Tevet Sela Quartet"
    INDEX 01 00:00:00
FILE "07 - Late Bloomer.wav" WAVE
  TRACK 07 AUDIO
    TITLE "Late Bloomer"
    PERFORMER "Tevet Sela Quartet"
    INDEX 01 00:00:00
FILE "08 - Earth Hymn.wav" WAVE
  TRACK 08 AUDIO
    TITLE "Earth Hymn"
    PERFORMER "Tevet Sela Quartet"
    INDEX 01 00:00:00
FILE "09 - My Weather.wav" WAVE
  TRACK 09 AUDIO
    TITLE "My Weather"
    PERFORMER "Tevet Sela Quartet"
    INDEX 01 00:00:00
FILE "10 - Peace Club.wav" WAVE
  TRACK 10 AUDIO
    TITLE "Peace Club"
    PERFORMER "Tevet Sela Quartet"
    INDEX 01 00:00:00
FILE "11 - Night Creature.wav" WAVE
  TRACK 11 AUDIO
    TITLE "Night Creature"
    PERFORMER "Tevet Sela Quartet"
    INDEX 01 00:00:00
 
 
Лог создания рипа
Exact Audio Copy V1.0 beta 2 from 29. April 2011
EAC extraction logfile from 11. August 2011, 20:32
Tevet Sela Quartet / Coming True
Used drive  : HL-DT-STDVDRAM GSA-T50N   Adapter: 1  ID: 0
Read mode               : Secure
Utilize accurate stream : Yes
Defeat audio cache      : Yes
Make use of C2 pointers : No
Read offset correction                      : 667
Overread into Lead-In and Lead-Out          : No
Fill up missing offset samples with silence : Yes
Delete leading and trailing silent blocks   : No
Null samples used in CRC calculations       : Yes
Used interface                              : Native Win32 interface for Win NT & 2000
Gap handling                                : Appended to previous track
Used output format              : User Defined Encoder
Selected bitrate                : 1024 kBit/s
Quality                         : High
Add ID3 tag                     : No
Command line compressor         : C:\Program Files\Exact Audio Copy\Flac\flac.exe
Additional command line options : -8 -V -T "ARTIST=%artist%" -T "TITLE=%title%" -T "ALBUM=%albumtitle%" -T "DATE=%year%" -T "TRACKNUMBER=%tracknr%" -T "GENRE=%genre%" -T "PERFORMER=%albuminterpret%" -T "COMMENT=EAC V1.0 beta 2, Secure Mode, Test & Copy, Acc
TOC of the extracted CD
     Track |   Start  |  Length  | Start sector | End sector
    ---------------------------------------------------------
        1  |  0:00.00 |  8:28.18 |         0    |    38117
        2  |  8:28.18 |  6:43.26 |     38118    |    68368
        3  | 15:11.44 |  4:51.00 |     68369    |    90193
        4  | 20:02.44 |  5:30.00 |     90194    |   114943
        5  | 25:32.44 |  6:50.40 |    114944    |   145733
        6  | 32:23.09 |  5:34.00 |    145734    |   170783
        7  | 37:57.09 |  5:29.67 |    170784    |   195525
        8  | 43:27.01 |  6:17.63 |    195526    |   223863
        9  | 49:44.64 |  3:38.30 |    223864    |   240243
       10  | 53:23.19 |  3:58.15 |    240244    |   258108
       11  | 57:21.34 |  5:14.10 |    258109    |   281668
Track  1
     Filename C:\music\Musicgate's rips\Tevet Sela Quartet - Coming True - 2007\01 - Existence.wav
     Pre-gap length  0:00:02.00
     Peak level 100.0 %
     Extraction speed 2.7 X
     Track quality 100.0 %
     Test CRC 54B0D4FA
     Copy CRC 54B0D4FA
     Track not present in AccurateRip database
     Copy OK
Track  2
     Filename C:\music\Musicgate's rips\Tevet Sela Quartet - Coming True - 2007\02 - Following Your Back.wav
     Peak level 100.0 %
     Extraction speed 2.9 X
     Track quality 99.9 %
     Test CRC 80565C9E
     Copy CRC 80565C9E
     Track not present in AccurateRip database
     Copy OK
Track  3
     Filename C:\music\Musicgate's rips\Tevet Sela Quartet - Coming True - 2007\03 - Coming True.wav
     Peak level 100.0 %
     Extraction speed 3.4 X
     Track quality 100.0 %
     Test CRC F3486A20
     Copy CRC F3486A20
     Track not present in AccurateRip database
     Copy OK
Track  4
     Filename C:\music\Musicgate's rips\Tevet Sela Quartet - Coming True - 2007\04 - Outside.wav
     Peak level 100.0 %
     Extraction speed 3.4 X
     Track quality 99.9 %
     Test CRC A1F3409A
     Copy CRC A1F3409A
     Track not present in AccurateRip database
     Copy OK
Track  5
     Filename C:\music\Musicgate's rips\Tevet Sela Quartet - Coming True - 2007\05 - Naked Soul.wav
     Peak level 83.1 %
     Extraction speed 4.1 X
     Track quality 100.0 %
     Test CRC E0E7B2B9
     Copy CRC E0E7B2B9
     Track not present in AccurateRip database
     Copy OK
Track  6
     Filename C:\music\Musicgate's rips\Tevet Sela Quartet - Coming True - 2007\06 - Small Steps.wav
     Peak level 99.7 %
     Extraction speed 3.9 X
     Track quality 99.9 %
     Test CRC E06D5A1F
     Copy CRC E06D5A1F
     Track not present in AccurateRip database
     Copy OK
Track  7
     Filename C:\music\Musicgate's rips\Tevet Sela Quartet - Coming True - 2007\07 - Late Bloomer.wav
     Peak level 82.1 %
     Extraction speed 4.5 X
     Track quality 100.0 %
     Test CRC 8238CC0D
     Copy CRC 8238CC0D
     Track not present in AccurateRip database
     Copy OK
Track  8
     Filename C:\music\Musicgate's rips\Tevet Sela Quartet - Coming True - 2007\08 - Earth Hymn.wav
     Peak level 91.2 %
     Extraction speed 4.4 X
     Track quality 99.9 %
     Test CRC FC5FF2BE
     Copy CRC FC5FF2BE
     Track not present in AccurateRip database
     Copy OK
Track  9
     Filename C:\music\Musicgate's rips\Tevet Sela Quartet - Coming True - 2007\09 - My Weather.wav
     Peak level 100.0 %
     Extraction speed 4.6 X
     Track quality 100.0 %
     Test CRC 5CC94BEA
     Copy CRC 5CC94BEA
     Track not present in AccurateRip database
     Copy OK
Track 10
     Filename C:\music\Musicgate's rips\Tevet Sela Quartet - Coming True - 2007\10 - Peace Club.wav
     Peak level 100.0 %
     Extraction speed 4.9 X
     Track quality 100.0 %
     Test CRC E75D0499
     Copy CRC E75D0499
     Track not present in AccurateRip database
     Copy OK
Track 11
     Filename C:\music\Musicgate's rips\Tevet Sela Quartet - Coming True - 2007\11 - Night Creature.wav
     Peak level 100.0 %
     Extraction speed 5.1 X
     Track quality 100.0 %
     Test CRC 7331A75F
     Copy CRC 7331A75F
     Track not present in AccurateRip database
     Copy OK
None of the tracks are present in the AccurateRip database
No errors occurred
End of status report
==== Log checksum B7AD317DE8A1AB6256D4ED78A3E2D98C39CDE55DC734F8D4F4DE64CD70527AE9 ====
03:05
1020
Нет комментариев. Ваш будет первым!