Поиск

2003 Art Tatum - Piano Grand Master {Proper PROPERBOX-60} [4CD]

2003 Art Tatum - Piano Grand Master {Proper PROPERBOX-60} [4CD]
Время звучания:
04:57:15
Треклист:
Страна-производитель диска: UK
Год издания диска: 2003
Издатель (лейбл): Proper Records
Номер по каталогу: PROPERBOX-60
Страна: US Toledo, OH
Аудиокодек: FLAC (*.flac)
Тип рипа: tracks+.cue
Битрейт аудио: lossless
Источник (релизер): anonymous
Наличие сканов в содержимом раздачи: нет
 
CD 1
 
 
Треклист:
01. Tiger Rag [01:58]
02. Tea For Two [03:12]
03. St. Louis Blues [02:36]
04. Tiger Rag (Alternate Take) [02:17]
05. Sophisticated Lady [03:14]
06. Moonglow [02:39]
07. I Would Do Anything For You [02:54]
08. When A Woman Loves A Man [03:01]
09. Emaline [02:35]
10. Love Me [02:53]
11. Cocktails For Two [02:47]
12. After You've Gone [02:59]
13. Stardust [03:14]
14. Ill Wind [02:54]
15. The Shout [02:46]
16. Beautiful Love [03:12]
17. Liza [02:55]
18. I Ain't Got Nobody [03:21]
19. Stay As Sweet As You Are [02:38]
20. I Wish I Were Twins [02:17]
21. Gone With The Wind [02:50]
22. Stormy Weather [03:10]
23. Chloe [03:23]
24. The Sheik Of Araby [02:43]
25. Tea for Two (Alternate Take) [02:36]
26. Deep Purple [03:15]
27. It Had To Be You [02:30]
 
 
Лог создания рипа
Exact Audio Copy V0.99 prebeta 4 from 23. January 2008
EAC extraction logfile from 14. April 2008, 10:36
Art Tatum / Piano Grand Master Volume 1 (Tea For Two)
Used drive  : _NEC    DVD+-RW ND-6650A   Adapter: 1  ID: 0
Read mode               : Secure
Utilize accurate stream : Yes
Defeat audio cache      : Yes
Make use of C2 pointers : No
Read offset correction                      : 48
Overread into Lead-In and Lead-Out          : No
Fill up missing offset samples with silence : Yes
Delete leading and trailing silent blocks   : No
Null samples used in CRC calculations       : Yes
Used interface                              : Installed external ASPI interface
Gap handling                                : Appended to previous track
Used output format              : User Defined Encoder
Selected bitrate                : 192 kBit/s
Quality                         : High
Add ID3 tag                     : No
Command line compressor         : C:\Program Files\Exact Audio Copy\flac-1.1.4-win\bin\flac.exe
Additional command line options : -8 -A tukey(0.25) -A gauss(0.1875) -b 4096 -V -T "artist=%a" -T "title=%t" -T "album=%g" -T "date=%y" -T "tracknumber=%n" -T "genre=%m" %s --sector-align
TOC of the extracted CD
     Track |   Start  |  Length  | Start sector | End sector
    ---------------------------------------------------------
        1  |  0:00.00 |  2:00.55 |         0    |     9054
        2  |  2:00.55 |  3:14.47 |      9055    |    23651
        3  |  5:15.27 |  2:39.01 |     23652    |    35577
        4  |  7:54.28 |  2:20.30 |     35578    |    46107
        5  | 10:14.58 |  3:17.14 |     46108    |    60896
        6  | 13:31.72 |  2:42.35 |     60897    |    73081
        7  | 16:14.32 |  2:56.64 |     73082    |    86345
        8  | 19:11.21 |  3:03.64 |     86346    |   100134
        9  | 22:15.10 |  2:38.27 |    100135    |   112011
       10  | 24:53.37 |  2:56.13 |    112012    |   125224
       11  | 27:49.50 |  2:49.50 |    125225    |   137949
       12  | 30:39.25 |  3:01.70 |    137950    |   151594
       13  | 33:41.20 |  3:17.38 |    151595    |   166407
       14  | 36:58.58 |  2:57.30 |    166408    |   179712
       15  | 39:56.13 |  2:48.49 |    179713    |   192361
       16  | 42:44.62 |  3:14.44 |    192362    |   206955
       17  | 45:59.31 |  2:58.00 |    206956    |   220305
       18  | 48:57.31 |  3:23.50 |    220306    |   235580
       19  | 52:21.06 |  2:41.38 |    235581    |   247693
       20  | 55:02.44 |  2:20.10 |    247694    |   258203
       21  | 57:22.54 |  2:52.72 |    258204    |   271175
       22  | 60:15.51 |  3:13.05 |    271176    |   285655
       23  | 63:28.56 |  3:26.07 |    285656    |   301112
       24  | 66:54.63 |  2:46.17 |    301113    |   313579
       25  | 69:41.05 |  2:38.73 |    313580    |   325502
       26  | 72:20.03 |  3:18.16 |    325503    |   340368
       27  | 75:38.19 |  2:30.22 |    340369    |   351640
Track  1
     Filename E:\Music\Art Tatum - Piano Grand Master\Disc 1 - Tea For Two\01 - Art Tatum - Tiger Rag.wav
     Pre-gap length  0:00:02.00
     Peak level 73.7 %
     Track quality 100.0 %
     Test CRC 73DC1554
     Copy CRC 73DC1554
     Accurately ripped (confidence 1)  [BA6FAA48]
     Copy OK
Track  2
     Filename E:\Music\Art Tatum - Piano Grand Master\Disc 1 - Tea For Two\02 - Art Tatum - Tea For Two.wav
     Pre-gap length  0:00:02.54
     Peak level 84.0 %
     Track quality 100.0 %
     Test CRC 228AB9D8
     Copy CRC 228AB9D8
     Accurately ripped (confidence 1)  [F7EF9370]
     Copy OK
Track  3
     Filename E:\Music\Art Tatum - Piano Grand Master\Disc 1 - Tea For Two\03 - Art Tatum - St. Louis Blues.wav
     Pre-gap length  0:00:02.54
     Peak level 84.0 %
     Track quality 100.0 %
     Test CRC A2ABA008
     Copy CRC A2ABA008
     Accurately ripped (confidence 1)  [DE29D944]
     Copy OK
Track  4
     Filename E:\Music\Art Tatum - Piano Grand Master\Disc 1 - Tea For Two\04 - Art Tatum - Tiger Rag (Alternate Take).wav
     Pre-gap length  0:00:02.54
     Peak level 94.3 %
     Track quality 100.0 %
     Test CRC E9344430
     Copy CRC E9344430
     Accurately ripped (confidence 1)  [963BA7F1]
     Copy OK
Track  5
     Filename E:\Music\Art Tatum - Piano Grand Master\Disc 1 - Tea For Two\05 - Art Tatum - Sophisticated Lady.wav
     Pre-gap length  0:00:02.54
     Peak level 82.1 %
     Track quality 100.0 %
     Test CRC 668ABD20
     Copy CRC 668ABD20
     Accurately ripped (confidence 1)  [A6823B85]
     Copy OK
Track  6
     Filename E:\Music\Art Tatum - Piano Grand Master\Disc 1 - Tea For Two\06 - Art Tatum - Moonglow.wav
     Pre-gap length  0:00:02.54
     Peak level 84.0 %
     Track quality 100.0 %
     Test CRC D8A0E906
     Copy CRC D8A0E906
     Accurately ripped (confidence 1)  [92620DFA]
     Copy OK
Track  7
     Filename E:\Music\Art Tatum - Piano Grand Master\Disc 1 - Tea For Two\07 - Art Tatum - I Would Do Anything For You.wav
     Pre-gap length  0:00:02.54
     Peak level 84.0 %
     Track quality 100.0 %
     Test CRC C141A981
     Copy CRC C141A981
     Accurately ripped (confidence 1)  [C56E36EF]
     Copy OK
Track  8
     Filename E:\Music\Art Tatum - Piano Grand Master\Disc 1 - Tea For Two\08 - Art Tatum - When A Woman Loves A Man.wav
     Pre-gap length  0:00:02.54
     Peak level 84.0 %
     Track quality 100.0 %
     Test CRC 3E617A94
     Copy CRC 3E617A94
     Accurately ripped (confidence 1)  [3B88244A]
     Copy OK
Track  9
     Filename E:\Music\Art Tatum - Piano Grand Master\Disc 1 - Tea For Two\09 - Art Tatum - Emaline.wav
     Pre-gap length  0:00:02.54
     Peak level 94.2 %
     Track quality 100.0 %
     Test CRC 95A73E6A
     Copy CRC 95A73E6A
     Accurately ripped (confidence 1)  [E9752335]
     Copy OK
Track 10
     Filename E:\Music\Art Tatum - Piano Grand Master\Disc 1 - Tea For Two\10 - Art Tatum - Love Me.wav
     Pre-gap length  0:00:02.54
     Peak level 84.1 %
     Track quality 100.0 %
     Test CRC BB7D3F18
     Copy CRC BB7D3F18
     Accurately ripped (confidence 1)  [C714683F]
     Copy OK
Track 11
     Filename E:\Music\Art Tatum - Piano Grand Master\Disc 1 - Tea For Two\11 - Art Tatum - Cocktails For Two.wav
     Pre-gap length  0:00:02.54
     Peak level 84.0 %
     Track quality 99.9 %
     Test CRC 6BB85A24
     Copy CRC 6BB85A24
     Accurately ripped (confidence 1)  [9B8DDC80]
     Copy OK
Track 12
     Filename E:\Music\Art Tatum - Piano Grand Master\Disc 1 - Tea For Two\12 - Art Tatum - After You've Gone.wav
     Pre-gap length  0:00:02.54
     Peak level 84.0 %
     Track quality 99.9 %
     Test CRC 489A0195
     Copy CRC 489A0195
     Accurately ripped (confidence 1)  [DE9D30D7]
     Copy OK
Track 13
     Filename E:\Music\Art Tatum - Piano Grand Master\Disc 1 - Tea For Two\13 - Art Tatum - Stardust.wav
     Pre-gap length  0:00:02.54
     Peak level 88.4 %
     Track quality 100.0 %
     Test CRC 180267A0
     Copy CRC 180267A0
     Accurately ripped (confidence 1)  [F8AB6E19]
     Copy OK
Track 14
     Filename E:\Music\Art Tatum - Piano Grand Master\Disc 1 - Tea For Two\14 - Art Tatum - Ill Wind.wav
     Pre-gap length  0:00:02.54
     Peak level 74.9 %
     Track quality 100.0 %
     Test CRC 6C5671FF
     Copy CRC 6C5671FF
     Accurately ripped (confidence 1)  [C99E4948]
     Copy OK
Track 15
     Filename E:\Music\Art Tatum - Piano Grand Master\Disc 1 - Tea For Two\15 - Art Tatum - The Shout.wav
     Pre-gap length  0:00:02.54
     Peak level 94.2 %
     Track quality 99.9 %
     Test CRC E3CB4422
     Copy CRC E3CB4422
     Accurately ripped (confidence 1)  [96E95CC9]
     Copy OK
Track 16
     Filename E:\Music\Art Tatum - Piano Grand Master\Disc 1 - Tea For Two\16 - Art Tatum - Beautiful Love.wav
     Pre-gap length  0:00:02.54
     Peak level 94.2 %
     Track quality 99.9 %
     Test CRC DB009342
     Copy CRC DB009342
     Accurately ripped (confidence 1)  [0C0FE9FC]
     Copy OK
Track 17
     Filename E:\Music\Art Tatum - Piano Grand Master\Disc 1 - Tea For Two\17 - Art Tatum - Liza.wav
     Pre-gap length  0:00:02.54
     Peak level 94.3 %
     Track quality 99.9 %
     Test CRC C1988FEE
     Copy CRC C1988FEE
     Accurately ripped (confidence 1)  [A5DE3B6B]
     Copy OK
Track 18
     Filename E:\Music\Art Tatum - Piano Grand Master\Disc 1 - Tea For Two\18 - Art Tatum - I Ain't Got Nobody.wav
     Pre-gap length  0:00:02.54
     Peak level 94.3 %
     Track quality 100.0 %
     Test CRC 0C9C87C7
     Copy CRC 0C9C87C7
     Accurately ripped (confidence 1)  [32B02B7D]
     Copy OK
Track 19
     Filename E:\Music\Art Tatum - Piano Grand Master\Disc 1 - Tea For Two\19 - Art Tatum - Stay As Sweet As You Are.wav
     Pre-gap length  0:00:02.54
     Peak level 84.0 %
     Track quality 100.0 %
     Test CRC 5BC2E207
     Copy CRC 5BC2E207
     Accurately ripped (confidence 1)  [87EDFB73]
     Copy OK
Track 20
     Filename E:\Music\Art Tatum - Piano Grand Master\Disc 1 - Tea For Two\20 - Art Tatum - I Wish I Were Twins.wav
     Pre-gap length  0:00:02.54
     Peak level 83.9 %
     Track quality 99.9 %
     Test CRC B5D5C0E8
     Copy CRC B5D5C0E8
     Accurately ripped (confidence 1)  [078FB52D]
     Copy OK
Track 21
     Filename E:\Music\Art Tatum - Piano Grand Master\Disc 1 - Tea For Two\21 - Art Tatum - Gone With The Wind.wav
     Pre-gap length  0:00:02.54
     Peak level 94.2 %
     Track quality 100.0 %
     Test CRC 08238A73
     Copy CRC 08238A73
     Accurately ripped (confidence 1)  [5B0F17A2]
     Copy OK
Track 22
     Filename E:\Music\Art Tatum - Piano Grand Master\Disc 1 - Tea For Two\22 - Art Tatum - Stormy Weather.wav
     Pre-gap length  0:00:02.54
     Peak level 94.3 %
     Track quality 100.0 %
     Test CRC 76108BCC
     Copy CRC 76108BCC
     Accurately ripped (confidence 1)  [529CEADC]
     Copy OK
Track 23
     Filename E:\Music\Art Tatum - Piano Grand Master\Disc 1 - Tea For Two\23 - Art Tatum - Chloe.wav
     Pre-gap length  0:00:02.54
     Peak level 94.2 %
     Track quality 100.0 %
     Test CRC CE138201
     Copy CRC CE138201
     Accurately ripped (confidence 1)  [9826029E]
     Copy OK
Track 24
     Filename E:\Music\Art Tatum - Piano Grand Master\Disc 1 - Tea For Two\24 - Art Tatum - The Sheik Of Araby.wav
     Pre-gap length  0:00:02.54
     Peak level 84.1 %
     Track quality 100.0 %
     Test CRC A71CCCAC
     Copy CRC A71CCCAC
     Accurately ripped (confidence 1)  [B77B82DF]
     Copy OK
Track 25
     Filename E:\Music\Art Tatum - Piano Grand Master\Disc 1 - Tea For Two\25 - Art Tatum - Tea for Two (Alternate Take).wav
     Pre-gap length  0:00:02.54
     Peak level 84.0 %
     Track quality 100.0 %
     Test CRC 79953F78
     Copy CRC 79953F78
     Accurately ripped (confidence 1)  [3EA52BFC]
     Copy OK
Track 26
     Filename E:\Music\Art Tatum - Piano Grand Master\Disc 1 - Tea For Two\26 - Art Tatum - Deep Purple.wav
     Pre-gap length  0:00:02.54
     Peak level 59.6 %
     Track quality 99.9 %
     Test CRC 5BD82072
     Copy CRC 5BD82072
     Accurately ripped (confidence 1)  [D3FBDF5D]
     Copy OK
Track 27
     Filename E:\Music\Art Tatum - Piano Grand Master\Disc 1 - Tea For Two\27 - Art Tatum - It Had To Be You.wav
     Pre-gap length  0:00:02.54
     Peak level 59.5 %
     Track quality 99.8 %
     Test CRC BC3AC62E
     Copy CRC BC3AC62E
     Accurately ripped (confidence 1)  [D35132D9]
     Copy OK
All tracks accurately ripped
No errors occurred
End of status report
 
 
Содержание индексной карты (.CUE)
REM GENRE Jazz
REM DATE 2003
REM DISCID 6E12501B
REM COMMENT "ExactAudioCopy v0.99pb4"
PERFORMER "Art Tatum"
TITLE "Piano Grand Master Volume 1 (Tea For Two)"
FILE "01 - Art Tatum - Tiger Rag.wav" WAVE
  TRACK 01 AUDIO
    TITLE "Tiger Rag"
    PERFORMER "Art Tatum"
    INDEX 01 00:00:00
  TRACK 02 AUDIO
    TITLE "Tea For Two"
    PERFORMER "Art Tatum"
    INDEX 00 01:58:14
FILE "02 - Art Tatum - Tea For Two.wav" WAVE
    INDEX 01 00:00:00
  TRACK 03 AUDIO
    TITLE "St. Louis Blues"
    PERFORMER "Art Tatum"
    INDEX 00 03:12:06
FILE "03 - Art Tatum - St. Louis Blues.wav" WAVE
    INDEX 01 00:00:00
  TRACK 04 AUDIO
    TITLE "Tiger Rag (Alternate Take)"
    PERFORMER "Art Tatum"
    INDEX 00 02:36:35
FILE "04 - Art Tatum - Tiger Rag (Alternate Take).wav" WAVE
    INDEX 01 00:00:00
  TRACK 05 AUDIO
    TITLE "Sophisticated Lady"
    PERFORMER "Art Tatum"
    INDEX 00 02:17:64
FILE "05 - Art Tatum - Sophisticated Lady.wav" WAVE
    INDEX 01 00:00:00
  TRACK 06 AUDIO
    TITLE "Moonglow"
    PERFORMER "Art Tatum"
    INDEX 00 03:14:48
FILE "06 - Art Tatum - Moonglow.wav" WAVE
    INDEX 01 00:00:00
  TRACK 07 AUDIO
    TITLE "I Would Do Anything For You"
    PERFORMER "Art Tatum"
    INDEX 00 02:39:69
FILE "07 - Art Tatum - I Would Do Anything For You.wav" WAVE
    INDEX 01 00:00:00
  TRACK 08 AUDIO
    TITLE "When A Woman Loves A Man"
    PERFORMER "Art Tatum"
    INDEX 00 02:54:23
FILE "08 - Art Tatum - When A Woman Loves A Man.wav" WAVE
    INDEX 01 00:00:00
  TRACK 09 AUDIO
    TITLE "Emaline"
    PERFORMER "Art Tatum"
    INDEX 00 03:01:23
FILE "09 - Art Tatum - Emaline.wav" WAVE
    INDEX 01 00:00:00
  TRACK 10 AUDIO
    TITLE "Love Me"
    PERFORMER "Art Tatum"
    INDEX 00 02:35:61
FILE "10 - Art Tatum - Love Me.wav" WAVE
    INDEX 01 00:00:00
  TRACK 11 AUDIO
    TITLE "Cocktails For Two"
    PERFORMER "Art Tatum"
    INDEX 00 02:53:47
FILE "11 - Art Tatum - Cocktails For Two.wav" WAVE
    INDEX 01 00:00:00
  TRACK 12 AUDIO
    TITLE "After You've Gone"
    PERFORMER "Art Tatum"
    INDEX 00 02:47:09
FILE "12 - Art Tatum - After You've Gone.wav" WAVE
    INDEX 01 00:00:00
  TRACK 13 AUDIO
    TITLE "Stardust"
    PERFORMER "Art Tatum"
    INDEX 00 02:59:29
FILE "13 - Art Tatum - Stardust.wav" WAVE
    INDEX 01 00:00:00
  TRACK 14 AUDIO
    TITLE "Ill Wind"
    PERFORMER "Art Tatum"
    INDEX 00 03:14:72
FILE "14 - Art Tatum - Ill Wind.wav" WAVE
    INDEX 01 00:00:00
  TRACK 15 AUDIO
    TITLE "The Shout"
    PERFORMER "Art Tatum"
    INDEX 00 02:54:64
FILE "15 - Art Tatum - The Shout.wav" WAVE
    INDEX 01 00:00:00
  TRACK 16 AUDIO
    TITLE "Beautiful Love"
    PERFORMER "Art Tatum"
    INDEX 00 02:46:08
FILE "16 - Art Tatum - Beautiful Love.wav" WAVE
    INDEX 01 00:00:00
  TRACK 17 AUDIO
    TITLE "Liza"
    PERFORMER "Art Tatum"
    INDEX 00 03:12:03
FILE "17 - Art Tatum - Liza.wav" WAVE
    INDEX 01 00:00:00
  TRACK 18 AUDIO
    TITLE "I Ain't Got Nobody"
    PERFORMER "Art Tatum"
    INDEX 00 02:55:34
FILE "18 - Art Tatum - I Ain't Got Nobody.wav" WAVE
    INDEX 01 00:00:00
  TRACK 19 AUDIO
    TITLE "Stay As Sweet As You Are"
    PERFORMER "Art Tatum"
    INDEX 00 03:21:09
FILE "19 - Art Tatum - Stay As Sweet As You Are.wav" WAVE
    INDEX 01 00:00:00
  TRACK 20 AUDIO
    TITLE "I Wish I Were Twins"
    PERFORMER "Art Tatum"
    INDEX 00 02:38:72
FILE "20 - Art Tatum - I Wish I Were Twins.wav" WAVE
    INDEX 01 00:00:00
  TRACK 21 AUDIO
    TITLE "Gone With The Wind"
    PERFORMER "Art Tatum"
    INDEX 00 02:17:44
FILE "21 - Art Tatum - Gone With The Wind.wav" WAVE
    INDEX 01 00:00:00
  TRACK 22 AUDIO
    TITLE "Stormy Weather"
    PERFORMER "Art Tatum"
    INDEX 00 02:50:31
FILE "22 - Art Tatum - Stormy Weather.wav" WAVE
    INDEX 01 00:00:00
  TRACK 23 AUDIO
    TITLE "Chloe"
    PERFORMER "Art Tatum"
    INDEX 00 03:10:39
FILE "23 - Art Tatum - Chloe.wav" WAVE
    INDEX 01 00:00:00
  TRACK 24 AUDIO
    TITLE "The Sheik Of Araby"
    PERFORMER "Art Tatum"
    INDEX 00 03:23:41
FILE "24 - Art Tatum - The Sheik Of Araby.wav" WAVE
    INDEX 01 00:00:00
  TRACK 25 AUDIO
    TITLE "Tea for Two (Alternate Take)"
    PERFORMER "Art Tatum"
    INDEX 00 02:43:51
FILE "25 - Art Tatum - Tea for Two (Alternate Take).wav" WAVE
    INDEX 01 00:00:00
  TRACK 26 AUDIO
    TITLE "Deep Purple"
    PERFORMER "Art Tatum"
    INDEX 00 02:36:32
FILE "26 - Art Tatum - Deep Purple.wav" WAVE
    INDEX 01 00:00:00
  TRACK 27 AUDIO
    TITLE "It Had To Be You"
    PERFORMER "Art Tatum"
    INDEX 00 03:15:50
FILE "27 - Art Tatum - It Had To Be You.wav" WAVE
    INDEX 01 00:00:00
 
 
CD 2
 
 
Треклист:
01. Oh You Crazy Moon [02:25]
02. Over the Rainbow [03:48]
03. Day In Day Out [03:28]
04. All God's Chillun Got Rhythm [01:56]
05. Elegie [03:14]
06. Humoresque [03:03]
07. Sweet Lorraine [03:00]
08. Get Happy [02:44]
09. Lullaby of the Leaves [03:05]
10. Tiger Rag [02:13]
11. Sweet Emaline, My Gal [02:58]
12. Love Me [02:42]
13. Begin the Beguine [02:43]
14. Rosetta [02:50]
15. Indiana [02:59]
16. Wee Baby Blues [02:52]
17. Stompin' at the Savoy [03:13]
18. Last Goodbye Blues [03:10]
19. Battery Bounce [02:29]
20. Lucille [03:24]
21. Rock me, Mama [02:55]
22. Corrine Corrina [02:27]
23. Lonesome Graveyard Blues [03:10]
24. I Got Rhythm [02:16]
25. Mop, Mop [05:02]
26. Esquire Bounce [02:04]
 
 
Лог создания рипа
Exact Audio Copy V0.99 prebeta 4 from 23. January 2008
EAC extraction logfile from 14. April 2008, 11:44
Art Tatum / Piano Grand Master Vol. 2 (Elegie)
Used drive  : _NEC    DVD+-RW ND-6650A   Adapter: 1  ID: 0
Read mode               : Secure
Utilize accurate stream : Yes
Defeat audio cache      : Yes
Make use of C2 pointers : No
Read offset correction                      : 48
Overread into Lead-In and Lead-Out          : No
Fill up missing offset samples with silence : Yes
Delete leading and trailing silent blocks   : No
Null samples used in CRC calculations       : Yes
Used interface                              : Installed external ASPI interface
Gap handling                                : Appended to previous track
Used output format              : User Defined Encoder
Selected bitrate                : 192 kBit/s
Quality                         : High
Add ID3 tag                     : No
Command line compressor         : C:\Program Files\Exact Audio Copy\flac-1.1.4-win\bin\flac.exe
Additional command line options : -8 -A tukey(0.25) -A gauss(0.1875) -b 4096 -V -T "artist=%a" -T "title=%t" -T "album=%g" -T "date=%y" -T "tracknumber=%n" -T "genre=%m" %s --sector-align
TOC of the extracted CD
     Track |   Start  |  Length  | Start sector | End sector
    ---------------------------------------------------------
        1  |  0:00.00 |  2:28.24 |         0    |    11123
        2  |  2:28.24 |  3:51.10 |     11124    |    28458
        3  |  6:19.34 |  3:30.41 |     28459    |    44249
        4  |  9:50.00 |  1:58.43 |     44250    |    53142
        5  | 11:48.43 |  3:17.23 |     53143    |    67940
        6  | 15:05.66 |  3:06.29 |     67941    |    81919
        7  | 18:12.20 |  3:02.45 |     81920    |    95614
        8  | 21:14.65 |  2:46.66 |     95615    |   108130
        9  | 24:01.56 |  3:07.54 |    108131    |   122209
       10  | 27:09.35 |  2:16.19 |    122210    |   132428
       11  | 29:25.54 |  3:00.63 |    132429    |   145991
       12  | 32:26.42 |  2:44.53 |    145992    |   158344
       13  | 35:11.20 |  2:45.56 |    158345    |   170775
       14  | 37:57.01 |  2:52.63 |    170776    |   183738
       15  | 40:49.64 |  3:01.47 |    183739    |   197360
       16  | 43:51.36 |  2:54.48 |    197361    |   210458
       17  | 46:46.09 |  3:15.74 |    210459    |   225157
       18  | 50:02.08 |  3:13.10 |    225158    |   239642
       19  | 53:15.18 |  2:32.21 |    239643    |   251063
       20  | 55:47.39 |  3:26.63 |    251064    |   266576
       21  | 59:14.27 |  2:58.10 |    266577    |   279936
       22  | 62:12.37 |  2:29.70 |    279937    |   291181
       23  | 64:42.32 |  3:12.41 |    291182    |   305622
       24  | 67:54.73 |  2:19.20 |    305623    |   316067
       25  | 70:14.18 |  5:05.33 |    316068    |   338975
       26  | 75:19.51 |  2:04.10 |    338976    |   348285
Track  1
     Filename E:\Music\Art Tatum - Piano Grand Master\Disc 2 - Elegie\01 - Art Tatum - Oh You Crazy Moon.wav
     Pre-gap length  0:00:02.00
     Peak level 74.9 %
     Track quality 100.0 %
     Test CRC 48388DAC
     Copy CRC 48388DAC
     Track not present in AccurateRip database
     Copy OK
Track  2
     Filename E:\Music\Art Tatum - Piano Grand Master\Disc 2 - Elegie\02 - Art Tatum - Over the Rainbow.wav
     Pre-gap length  0:00:02.54
     Peak level 74.9 %
     Track quality 100.0 %
     Test CRC 580A51E9
     Copy CRC 580A51E9
     Track not present in AccurateRip database
     Copy OK
Track  3
     Filename E:\Music\Art Tatum - Piano Grand Master\Disc 2 - Elegie\03 - Art Tatum - Day In Day Out.wav
     Pre-gap length  0:00:02.54
     Peak level 74.8 %
     Track quality 100.0 %
     Test CRC 6565592C
     Copy CRC 6565592C
     Track not present in AccurateRip database
     Copy OK
Track  4
     Filename E:\Music\Art Tatum - Piano Grand Master\Disc 2 - Elegie\04 - Art Tatum - All God's Chillun Got Rhythm.wav
     Pre-gap length  0:00:02.54
     Peak level 94.3 %
     Track quality 100.0 %
     Test CRC 9D5DCAD8
     Copy CRC 9D5DCAD8
     Track not present in AccurateRip database
     Copy OK
Track  5
     Filename E:\Music\Art Tatum - Piano Grand Master\Disc 2 - Elegie\05 - Art Tatum - Elegie.wav
     Pre-gap length  0:00:02.54
     Peak level 84.0 %
     Track quality 100.0 %
     Test CRC 4B3CA419
     Copy CRC 4B3CA419
     Track not present in AccurateRip database
     Copy OK
Track  6
     Filename E:\Music\Art Tatum - Piano Grand Master\Disc 2 - Elegie\06 - Art Tatum - Humoresque.wav
     Pre-gap length  0:00:02.54
     Peak level 84.0 %
     Track quality 100.0 %
     Test CRC 2F8DC9C3
     Copy CRC 2F8DC9C3
     Track not present in AccurateRip database
     Copy OK
Track  7
     Filename E:\Music\Art Tatum - Piano Grand Master\Disc 2 - Elegie\07 - Art Tatum - Sweet Lorraine.wav
     Pre-gap length  0:00:02.54
     Peak level 84.0 %
     Track quality 99.9 %
     Test CRC A0BE6341
     Copy CRC A0BE6341
     Track not present in AccurateRip database
     Copy OK
Track  8
     Filename E:\Music\Art Tatum - Piano Grand Master\Disc 2 - Elegie\08 - Art Tatum - Get Happy.wav
     Pre-gap length  0:00:02.54
     Peak level 94.2 %
     Track quality 100.0 %
     Test CRC 188DEEC8
     Copy CRC 188DEEC8
     Track not present in AccurateRip database
     Copy OK
Track  9
     Filename E:\Music\Art Tatum - Piano Grand Master\Disc 2 - Elegie\09 - Art Tatum - Lullaby of the Leaves.wav
     Pre-gap length  0:00:02.54
     Peak level 94.3 %
     Track quality 100.0 %
     Test CRC 0733B0D4
     Copy CRC 0733B0D4
     Track not present in AccurateRip database
     Copy OK
Track 10
     Filename E:\Music\Art Tatum - Piano Grand Master\Disc 2 - Elegie\10 - Art Tatum - Tiger Rag.wav
     Pre-gap length  0:00:02.54
     Peak level 93.4 %
     Track quality 100.0 %
     Test CRC A9FA7F88
     Copy CRC A9FA7F88
     Track not present in AccurateRip database
     Copy OK
Track 11
     Filename E:\Music\Art Tatum - Piano Grand Master\Disc 2 - Elegie\11 - Art Tatum - Sweet Emaline, My Gal.wav
     Pre-gap length  0:00:02.54
     Peak level 93.1 %
     Track quality 100.0 %
     Test CRC AB2093FE
     Copy CRC AB2093FE
     Track not present in AccurateRip database
     Copy OK
Track 12
     Filename E:\Music\Art Tatum - Piano Grand Master\Disc 2 - Elegie\12 - Art Tatum - Love Me.wav
     Pre-gap length  0:00:02.54
     Peak level 94.3 %
     Track quality 99.9 %
     Test CRC 11629B93
     Copy CRC 11629B93
     Track not present in AccurateRip database
     Copy OK
Track 13
     Filename E:\Music\Art Tatum - Piano Grand Master\Disc 2 - Elegie\13 - Art Tatum - Begin the Beguine.wav
     Pre-gap length  0:00:02.54
     Peak level 94.3 %
     Track quality 100.0 %
     Test CRC 326A0662
     Copy CRC 326A0662
     Track not present in AccurateRip database
     Copy OK
Track 14
     Filename E:\Music\Art Tatum - Piano Grand Master\Disc 2 - Elegie\14 - Art Tatum - Rosetta.wav
     Pre-gap length  0:00:02.54
     Peak level 94.2 %
     Track quality 100.0 %
     Test CRC A9EBD10C
     Copy CRC A9EBD10C
     Track not present in AccurateRip database
     Copy OK
Track 15
     Filename E:\Music\Art Tatum - Piano Grand Master\Disc 2 - Elegie\15 - Art Tatum - Indiana.wav
     Pre-gap length  0:00:02.54
     Peak level 94.3 %
     Track quality 99.9 %
     Test CRC AFD8ECF8
     Copy CRC AFD8ECF8
     Track not present in AccurateRip database
     Copy OK
Track 16
     Filename E:\Music\Art Tatum - Piano Grand Master\Disc 2 - Elegie\16 - Art Tatum - Wee Baby Blues.wav
     Pre-gap length  0:00:02.54
     Peak level 94.1 %
     Track quality 100.0 %
     Test CRC 86E01238
     Copy CRC 86E01238
     Track not present in AccurateRip database
     Copy OK
Track 17
     Filename E:\Music\Art Tatum - Piano Grand Master\Disc 2 - Elegie\17 - Art Tatum - Stompin' at the Savoy.wav
     Pre-gap length  0:00:02.54
     Peak level 94.2 %
     Track quality 100.0 %
     Test CRC 136CFCD3
     Copy CRC 136CFCD3
     Track not present in AccurateRip database
     Copy OK
Track 18
     Filename E:\Music\Art Tatum - Piano Grand Master\Disc 2 - Elegie\18 - Art Tatum - Last Goodbye Blues.wav
     Pre-gap length  0:00:02.54
     Peak level 83.9 %
     Track quality 100.0 %
     Test CRC E5BEDC53
     Copy CRC E5BEDC53
     Track not present in AccurateRip database
     Copy OK
Track 19
     Filename E:\Music\Art Tatum - Piano Grand Master\Disc 2 - Elegie\19 - Art Tatum - Battery Bounce.wav
     Pre-gap length  0:00:02.54
     Peak level 84.0 %
     Track quality 100.0 %
     Test CRC 87A3C674
     Copy CRC 87A3C674
     Track not present in AccurateRip database
     Copy OK
Track 20
     Filename E:\Music\Art Tatum - Piano Grand Master\Disc 2 - Elegie\20 - Art Tatum - Lucille.wav
     Pre-gap length  0:00:02.54
     Peak level 84.0 %
     Track quality 100.0 %
     Test CRC F6541D2B
     Copy CRC F6541D2B
     Track not present in AccurateRip database
     Copy OK
Track 21
     Filename E:\Music\Art Tatum - Piano Grand Master\Disc 2 - Elegie\21 - Art Tatum - Rock me, Mama.wav
     Pre-gap length  0:00:02.54
     Peak level 84.0 %
     Track quality 100.0 %
     Test CRC CA061D7F
     Copy CRC CA061D7F
     Track not present in AccurateRip database
     Copy OK
Track 22
     Filename E:\Music\Art Tatum - Piano Grand Master\Disc 2 - Elegie\22 - Art Tatum - Corrine Corrina.wav
     Pre-gap length  0:00:02.54
     Peak level 84.0 %
     Track quality 100.0 %
     Test CRC E45ACBD0
     Copy CRC E45ACBD0
     Track not present in AccurateRip database
     Copy OK
Track 23
     Filename E:\Music\Art Tatum - Piano Grand Master\Disc 2 - Elegie\23 - Art Tatum - Lonesome Graveyard Blues.wav
     Pre-gap length  0:00:02.54
     Peak level 94.2 %
     Track quality 100.0 %
     Test CRC EAFE5B1A
     Copy CRC EAFE5B1A
     Track not present in AccurateRip database
     Copy OK
Track 24
     Filename E:\Music\Art Tatum - Piano Grand Master\Disc 2 - Elegie\24 - Art Tatum - I Got Rhythm.wav
     Pre-gap length  0:00:02.54
     Peak level 94.2 %
     Track quality 100.0 %
     Test CRC 2297F655
     Copy CRC 2297F655
     Track not present in AccurateRip database
     Copy OK
Track 25
     Filename E:\Music\Art Tatum - Piano Grand Master\Disc 2 - Elegie\25 - Art Tatum - Mop, Mop.wav
     Pre-gap length  0:00:02.54
     Peak level 94.3 %
     Track quality 100.0 %
     Test CRC AAC79E62
     Copy CRC AAC79E62
     Track not present in AccurateRip database
     Copy OK
Track 26
     Filename E:\Music\Art Tatum - Piano Grand Master\Disc 2 - Elegie\26 - Art Tatum - Esquire Bounce.wav
     Pre-gap length  0:00:02.54
     Peak level 94.2 %
     Track quality 100.0 %
     Test CRC ED312B91
     Copy CRC ED312B91
     Track not present in AccurateRip database
     Copy OK
None of the tracks are present in the AccurateRip database
No errors occurred
End of status report
 
 
Содержание индексной карты (.CUE)
REM GENRE Jazz
REM DATE 2003
REM DISCID 7712231A
REM COMMENT "ExactAudioCopy v0.99pb4"
PERFORMER "Art Tatum"
TITLE "Piano Grand Master Vol. 2 (Elegie)"
FILE "01 - Art Tatum - Oh You Crazy Moon.wav" WAVE
  TRACK 01 AUDIO
    TITLE "Oh You Crazy Moon"
    PERFORMER "Art Tatum"
    INDEX 01 00:00:00
  TRACK 02 AUDIO
    TITLE "Over the Rainbow"
    PERFORMER "Art Tatum"
    INDEX 00 02:25:58
FILE "02 - Art Tatum - Over the Rainbow.wav" WAVE
    INDEX 01 00:00:00
  TRACK 03 AUDIO
    TITLE "Day In Day Out"
    PERFORMER "Art Tatum"
    INDEX 00 03:48:44
FILE "03 - Art Tatum - Day In Day Out.wav" WAVE
    INDEX 01 00:00:00
  TRACK 04 AUDIO
    TITLE "All God's Chillun Got Rhythm"
    PERFORMER "Art Tatum"
    INDEX 00 03:28:00
FILE "04 - Art Tatum - All God's Chillun Got Rhythm.wav" WAVE
    INDEX 01 00:00:00
  TRACK 05 AUDIO
    TITLE "Elegie"
    PERFORMER "Art Tatum"
    INDEX 00 01:56:02
FILE "05 - Art Tatum - Elegie.wav" WAVE
    INDEX 01 00:00:00
  TRACK 06 AUDIO
    TITLE "Humoresque"
    PERFORMER "Art Tatum"
    INDEX 00 03:14:57
FILE "06 - Art Tatum - Humoresque.wav" WAVE
    INDEX 01 00:00:00
  TRACK 07 AUDIO
    TITLE "Sweet Lorraine"
    PERFORMER "Art Tatum"
    INDEX 00 03:03:63
FILE "07 - Art Tatum - Sweet Lorraine.wav" WAVE
    INDEX 01 00:00:00
  TRACK 08 AUDIO
    TITLE "Get Happy"
    PERFORMER "Art Tatum"
    INDEX 00 03:00:04
FILE "08 - Art Tatum - Get Happy.wav" WAVE
    INDEX 01 00:00:00
  TRACK 09 AUDIO
    TITLE "Lullaby of the Leaves"
    PERFORMER "Art Tatum"
    INDEX 00 02:44:25
FILE "09 - Art Tatum - Lullaby of the Leaves.wav" WAVE
    INDEX 01 00:00:00
  TRACK 10 AUDIO
    TITLE "Tiger Rag"
    PERFORMER "Art Tatum"
    INDEX 00 03:05:13
FILE "10 - Art Tatum - Tiger Rag.wav" WAVE
    INDEX 01 00:00:00
  TRACK 11 AUDIO
    TITLE "Sweet Emaline, My Gal"
    PERFORMER "Art Tatum"
    INDEX 00 02:13:53
FILE "11 - Art Tatum - Sweet Emaline, My Gal.wav" WAVE
    INDEX 01 00:00:00
  TRACK 12 AUDIO
    TITLE "Love Me"
    PERFORMER "Art Tatum"
    INDEX 00 02:58:22
FILE "12 - Art Tatum - Love Me.wav" WAVE
    INDEX 01 00:00:00
  TRACK 13 AUDIO
    TITLE "Begin the Beguine"
    PERFORMER "Art Tatum"
    INDEX 00 02:42:12
FILE "13 - Art Tatum - Begin the Beguine.wav" WAVE
    INDEX 01 00:00:00
  TRACK 14 AUDIO
    TITLE "Rosetta"
    PERFORMER "Art Tatum"
    INDEX 00 02:43:15
FILE "14 - Art Tatum - Rosetta.wav" WAVE
    INDEX 01 00:00:00
  TRACK 15 AUDIO
    TITLE "Indiana"
    PERFORMER "Art Tatum"
    INDEX 00 02:50:22
FILE "15 - Art Tatum - Indiana.wav" WAVE
    INDEX 01 00:00:00
  TRACK 16 AUDIO
    TITLE "Wee Baby Blues"
    PERFORMER "Art Tatum"
    INDEX 00 02:59:06
FILE "16 - Art Tatum - Wee Baby Blues.wav" WAVE
    INDEX 01 00:00:00
  TRACK 17 AUDIO
    TITLE "Stompin' at the Savoy"
    PERFORMER "Art Tatum"
    INDEX 00 02:52:07
FILE "17 - Art Tatum - Stompin' at the Savoy.wav" WAVE
    INDEX 01 00:00:00
  TRACK 18 AUDIO
    TITLE "Last Goodbye Blues"
    PERFORMER "Art Tatum"
    INDEX 00 03:13:33
FILE "18 - Art Tatum - Last Goodbye Blues.wav" WAVE
    INDEX 01 00:00:00
  TRACK 19 AUDIO
    TITLE "Battery Bounce"
    PERFORMER "Art Tatum"
    INDEX 00 03:10:44
FILE "19 - Art Tatum - Battery Bounce.wav" WAVE
    INDEX 01 00:00:00
  TRACK 20 AUDIO
    TITLE "Lucille"
    PERFORMER "Art Tatum"
    INDEX 00 02:29:55
FILE "20 - Art Tatum - Lucille.wav" WAVE
    INDEX 01 00:00:00
  TRACK 21 AUDIO
    TITLE "Rock me, Mama"
    PERFORMER "Art Tatum"
    INDEX 00 03:24:22
FILE "21 - Art Tatum - Rock me, Mama.wav" WAVE
    INDEX 01 00:00:00
  TRACK 22 AUDIO
    TITLE "Corrine Corrina"
    PERFORMER "Art Tatum"
    INDEX 00 02:55:44
FILE "22 - Art Tatum - Corrine Corrina.wav" WAVE
    INDEX 01 00:00:00
  TRACK 23 AUDIO
    TITLE "Lonesome Graveyard Blues"
    PERFORMER "Art Tatum"
    INDEX 00 02:27:29
FILE "23 - Art Tatum - Lonesome Graveyard Blues.wav" WAVE
    INDEX 01 00:00:00
  TRACK 24 AUDIO
    TITLE "I Got Rhythm"
    PERFORMER "Art Tatum"
    INDEX 00 03:10:00
FILE "24 - Art Tatum - I Got Rhythm.wav" WAVE
    INDEX 01 00:00:00
  TRACK 25 AUDIO
    TITLE "Mop, Mop"
    PERFORMER "Art Tatum"
    INDEX 00 02:16:54
FILE "25 - Art Tatum - Mop, Mop.wav" WAVE
    INDEX 01 00:00:00
  TRACK 26 AUDIO
    TITLE "Esquire Bounce"
    PERFORMER "Art Tatum"
    INDEX 00 05:02:67
FILE "26 - Art Tatum - Esquire Bounce.wav" WAVE
    INDEX 01 00:00:00
 
 
CD 3
 
 
Треклист:
01. My Ideal [03:21]
02. Exactly Like You [05:05]
03. Flying Home [04:14]
04. Dark Eyes [04:41]
05. Body and Soul [04:37]
06. I Know That You Know [04:18]
07. Halleujiah [02:38]
08. Yesterdays [03:05]
09. Tatum Pole Boogie [02:22]
10. Willow Weep for Me [02:51]
11. I Cover the Waterfront [02:30]
12. Aunt Hagar's Blues [02:41]
13. Nice Work If You Can Get It [02:45]
14. Someone to Watch Over Me [02:47]
15. Dardanella [02:48]
16. Time on my Hands [03:02]
17. Sweet Lorraine [02:37]
18. Somebody Loves Me [02:44]
19. Don't Blame Me [02:53]
20. My Heart Stood Still [03:08]
21. You Took Advantage of Me [03:12]
22. I Gotta Right to Sing the Blues [02:55]
 
 
Лог создания рипа
Exact Audio Copy V0.99 prebeta 4 from 23. January 2008
EAC extraction logfile from 14. April 2008, 12:34
Art Tatum / Grand Piano Master Vol 3 (Willow Weep for Me)
Used drive  : _NEC    DVD+-RW ND-6650A   Adapter: 1  ID: 0
Read mode               : Secure
Utilize accurate stream : Yes
Defeat audio cache      : Yes
Make use of C2 pointers : No
Read offset correction                      : 48
Overread into Lead-In and Lead-Out          : No
Fill up missing offset samples with silence : Yes
Delete leading and trailing silent blocks   : No
Null samples used in CRC calculations       : Yes
Used interface                              : Installed external ASPI interface
Gap handling                                : Appended to previous track
Used output format              : User Defined Encoder
Selected bitrate                : 192 kBit/s
Quality                         : High
Add ID3 tag                     : No
Command line compressor         : C:\Program Files\Exact Audio Copy\flac-1.1.4-win\bin\flac.exe
Additional command line options : -8 -A tukey(0.25) -A gauss(0.1875) -b 4096 -V -T "artist=%a" -T "title=%t" -T "album=%g" -T "date=%y" -T "tracknumber=%n" -T "genre=%m" %s --sector-align
TOC of the extracted CD
     Track |   Start  |  Length  | Start sector | End sector
    ---------------------------------------------------------
        1  |  0:00.00 |  3:23.64 |         0    |    15288
        2  |  3:23.64 |  5:08.00 |     15289    |    38388
        3  |  8:31.64 |  4:16.61 |     38389    |    57649
        4  | 12:48.50 |  4:44.29 |     57650    |    78978
        5  | 17:33.04 |  4:39.43 |     78979    |    99946
        6  | 22:12.47 |  4:21.29 |     99947    |   119550
        7  | 26:34.01 |  2:40.61 |    119551    |   131611
        8  | 29:14.62 |  3:07.53 |    131612    |   145689
        9  | 32:22.40 |  2:25.27 |    145690    |   156591
       10  | 34:47.67 |  2:54.35 |    156592    |   169676
       11  | 37:42.27 |  2:32.45 |    169677    |   181121
       12  | 40:14.72 |  2:43.41 |    181122    |   193387
       13  | 42:58.38 |  2:48.05 |    193388    |   205992
       14  | 45:46.43 |  2:50.38 |    205993    |   218780
       15  | 48:37.06 |  2:50.49 |    218781    |   231579
       16  | 51:27.55 |  3:05.00 |    231580    |   245454
       17  | 54:32.55 |  2:39.54 |    245455    |   257433
       18  | 57:12.34 |  2:46.72 |    257434    |   269955
       19  | 59:59.31 |  2:55.61 |    269956    |   283141
       20  | 62:55.17 |  3:10.60 |    283142    |   297451
       21  | 66:06.02 |  3:15.02 |    297452    |   312078
       22  | 69:21.04 |  2:55.47 |    312079    |   325250
Track  1
     Filename E:\Music\Art Tatum - Piano Grand Master\Disc 3 - Willow Weep For Me\01 - Art Tatum - My Ideal.wav
     Pre-gap length  0:00:02.00
     Peak level 94.3 %
     Track quality 99.9 %
     Test CRC 369FD2BF
     Copy CRC 369FD2BF
     Track not present in AccurateRip database
     Copy OK
Track  2
     Filename E:\Music\Art Tatum - Piano Grand Master\Disc 3 - Willow Weep For Me\02 - Art Tatum - Exactly Like You.wav
     Pre-gap length  0:00:02.54
     Peak level 94.3 %
     Track quality 100.0 %
     Test CRC 5E253FF6
     Copy CRC 5E253FF6
     Track not present in AccurateRip database
     Copy OK
Track  3
     Filename E:\Music\Art Tatum - Piano Grand Master\Disc 3 - Willow Weep For Me\03 - Art Tatum - Flying Home.wav
     Pre-gap length  0:00:02.54
     Peak level 94.3 %
     Track quality 100.0 %
     Test CRC 3C629C98
     Copy CRC 3C629C98
     Track not present in AccurateRip database
     Copy OK
Track  4
     Filename E:\Music\Art Tatum - Piano Grand Master\Disc 3 - Willow Weep For Me\04 - Art Tatum - Dark Eyes.wav
     Pre-gap length  0:00:02.54
     Peak level 72.2 %
     Track quality 100.0 %
     Test CRC D2B21744
     Copy CRC D2B21744
     Track not present in AccurateRip database
     Copy OK
Track  5
     Filename E:\Music\Art Tatum - Piano Grand Master\Disc 3 - Willow Weep For Me\05 - Art Tatum - Body and Soul.wav
     Pre-gap length  0:00:02.54
     Peak level 84.0 %
     Track quality 99.9 %
     Test CRC 4817D7BF
     Copy CRC 4817D7BF
     Track not present in AccurateRip database
     Copy OK
Track  6
     Filename E:\Music\Art Tatum - Piano Grand Master\Disc 3 - Willow Weep For Me\06 - Art Tatum - I Know That You Know.wav
     Pre-gap length  0:00:02.54
     Peak level 84.0 %
     Track quality 100.0 %
     Test CRC D15D6006
     Copy CRC D15D6006
     Track not present in AccurateRip database
     Copy OK
Track  7
     Filename E:\Music\Art Tatum - Piano Grand Master\Disc 3 - Willow Weep For Me\07 - Art Tatum - Halleujiah.wav
     Pre-gap length  0:00:02.54
     Peak level 94.3 %
     Track quality 100.0 %
     Test CRC 3F86DF77
     Copy CRC 3F86DF77
     Track not present in AccurateRip database
     Copy OK
Track  8
     Filename E:\Music\Art Tatum - Piano Grand Master\Disc 3 - Willow Weep For Me\08 - Art Tatum - Yesterdays.wav
     Pre-gap length  0:00:02.54
     Peak level 94.2 %
     Track quality 100.0 %
     Test CRC 730343DF
     Copy CRC 730343DF
     Track not present in AccurateRip database
     Copy OK
Track  9
     Filename E:\Music\Art Tatum - Piano Grand Master\Disc 3 - Willow Weep For Me\09 - Art Tatum - Tatum Pole Boogie.wav
     Pre-gap length  0:00:02.54
     Peak level 83.7 %
     Track quality 100.0 %
     Test CRC 0C5AA281
     Copy CRC 0C5AA281
     Track not present in AccurateRip database
     Copy OK
Track 10
     Filename E:\Music\Art Tatum - Piano Grand Master\Disc 3 - Willow Weep For Me\10 - Art Tatum - Willow Weep for Me.wav
     Pre-gap length  0:00:02.54
     Peak level 94.2 %
     Track quality 100.0 %
     Test CRC EA2B6DBA
     Copy CRC EA2B6DBA
     Track not present in AccurateRip database
     Copy OK
Track 11
     Filename E:\Music\Art Tatum - Piano Grand Master\Disc 3 - Willow Weep For Me\11 - Art Tatum - I Cover the Waterfront.wav
     Pre-gap length  0:00:02.54
     Peak level 94.3 %
     Track quality 100.0 %
     Test CRC 1E9D5900
     Copy CRC 1E9D5900
     Track not present in AccurateRip database
     Copy OK
Track 12
     Filename E:\Music\Art Tatum - Piano Grand Master\Disc 3 - Willow Weep For Me\12 - Art Tatum - Aunt Hagar's Blues.wav
     Pre-gap length  0:00:02.54
     Peak level 94.3 %
     Track quality 100.0 %
     Test CRC E68193CB
     Copy CRC E68193CB
     Track not present in AccurateRip database
     Copy OK
Track 13
     Filename E:\Music\Art Tatum - Piano Grand Master\Disc 3 - Willow Weep For Me\13 - Art Tatum - Nice Work If You Can Get It.wav
     Pre-gap length  0:00:02.54
     Peak level 94.3 %
     Track quality 100.0 %
     Test CRC AFB85A4F
     Copy CRC AFB85A4F
     Track not present in AccurateRip database
     Copy OK
Track 14
     Filename E:\Music\Art Tatum - Piano Grand Master\Disc 3 - Willow Weep For Me\14 - Art Tatum - Someone to Watch Over Me.wav
     Pre-gap length  0:00:02.54
     Peak level 84.0 %
     Track quality 100.0 %
     Test CRC 3A196A92
     Copy CRC 3A196A92
     Track not present in AccurateRip database
     Copy OK
Track 15
     Filename E:\Music\Art Tatum - Piano Grand Master\Disc 3 - Willow Weep For Me\15 - Art Tatum - Dardanella.wav
     Pre-gap length  0:00:02.54
     Peak level 94.3 %
     Track quality 99.9 %
     Test CRC A0216D4B
     Copy CRC A0216D4B
     Track not present in AccurateRip database
     Copy OK
Track 16
     Filename E:\Music\Art Tatum - Piano Grand Master\Disc 3 - Willow Weep For Me\16 - Art Tatum - Time on my Hands.wav
     Pre-gap length  0:00:02.49
     Peak level 83.9 %
     Track quality 100.0 %
     Test CRC 4D097A42
     Copy CRC 4D097A42
     Track not present in AccurateRip database
     Copy OK
Track 17
     Filename E:\Music\Art Tatum - Piano Grand Master\Disc 3 - Willow Weep For Me\17 - Art Tatum - Sweet Lorraine.wav
     Pre-gap length  0:00:02.54
     Peak level 94.3 %
     Track quality 99.9 %
     Test CRC B5C73BC4
     Copy CRC B5C73BC4
     Track not present in AccurateRip database
     Copy OK
Track 18
     Filename E:\Music\Art Tatum - Piano Grand Master\Disc 3 - Willow Weep For Me\18 - Art Tatum - Somebody Loves Me.wav
     Pre-gap length  0:00:02.54
     Peak level 94.2 %
     Track quality 100.0 %
     Test CRC FCA4F6ED
     Copy CRC FCA4F6ED
     Track not present in AccurateRip database
     Copy OK
Track 19
     Filename E:\Music\Art Tatum - Piano Grand Master\Disc 3 - Willow Weep For Me\19 - Art Tatum - Don't Blame Me.wav
     Pre-gap length  0:00:02.54
     Peak level 94.2 %
     Track quality 100.0 %
     Test CRC 9E39D5E2
     Copy CRC 9E39D5E2
     Track not present in AccurateRip database
     Copy OK
Track 20
     Filename E:\Music\Art Tatum - Piano Grand Master\Disc 3 - Willow Weep For Me\20 - Art Tatum - My Heart Stood Still.wav
     Pre-gap length  0:00:02.54
     Peak level 84.0 %
     Track quality 100.0 %
     Test CRC 2B07F148
     Copy CRC 2B07F148
     Track not present in AccurateRip database
     Copy OK
Track 21
     Filename E:\Music\Art Tatum - Piano Grand Master\Disc 3 - Willow Weep For Me\21 - Art Tatum - You Took Advantage of Me.wav
     Pre-gap length  0:00:02.54
     Peak level 94.3 %
     Track quality 100.0 %
     Test CRC 60E47BB9
     Copy CRC 60E47BB9
     Track not present in AccurateRip database
     Copy OK
Track 22
     Filename E:\Music\Art Tatum - Piano Grand Master\Disc 3 - Willow Weep For Me\22 - Art Tatum - I Gotta Right to Sing the Blues.wav
     Pre-gap length  0:00:02.54
     Peak level 94.2 %
     Track quality 100.0 %
     Test CRC 21268BC2
     Copy CRC 21268BC2
     Track not present in AccurateRip database
     Copy OK
None of the tracks are present in the AccurateRip database
No errors occurred
End of status report
 
 
Содержание индексной карты (.CUE)
REM GENRE Jazz
REM DATE 2003
REM DISCID 5410F016
REM COMMENT "ExactAudioCopy v0.99pb4"
PERFORMER "Art Tatum"
TITLE "Grand Piano Master Vol 3 (Willow Weep for Me)"
FILE "01 - Art Tatum - My Ideal.wav" WAVE
  TRACK 01 AUDIO
    TITLE "My Ideal"
    PERFORMER "Art Tatum"
    INDEX 01 00:00:00
  TRACK 02 AUDIO
    TITLE "Exactly Like You"
    PERFORMER "Art Tatum"
    INDEX 00 03:21:23
FILE "02 - Art Tatum - Exactly Like You.wav" WAVE
    INDEX 01 00:00:00
  TRACK 03 AUDIO
    TITLE "Flying Home"
    PERFORMER "Art Tatum"
    INDEX 00 05:05:34
FILE "03 - Art Tatum - Flying Home.wav" WAVE
    INDEX 01 00:00:00
  TRACK 04 AUDIO
    TITLE "Dark Eyes"
    PERFORMER "Art Tatum"
    INDEX 00 04:14:20
FILE "04 - Art Tatum - Dark Eyes.wav" WAVE
    INDEX 01 00:00:00
  TRACK 05 AUDIO
    TITLE "Body and Soul"
    PERFORMER "Art Tatum"
    INDEX 00 04:41:63
FILE "05 - Art Tatum - Body and Soul.wav" WAVE
    INDEX 01 00:00:00
  TRACK 06 AUDIO
    TITLE "I Know That You Know"
    PERFORMER "Art Tatum"
    INDEX 00 04:37:02
FILE "06 - Art Tatum - I Know That You Know.wav" WAVE
    INDEX 01 00:00:00
  TRACK 07 AUDIO
    TITLE "Halleujiah"
    PERFORMER "Art Tatum"
    INDEX 00 04:18:63
FILE "07 - Art Tatum - Halleujiah.wav" WAVE
    INDEX 01 00:00:00
  TRACK 08 AUDIO
    TITLE "Yesterdays"
    PERFORMER "Art Tatum"
    INDEX 00 02:38:20
FILE "08 - Art Tatum - Yesterdays.wav" WAVE
    INDEX 01 00:00:00
  TRACK 09 AUDIO
    TITLE "Tatum Pole Boogie"
    PERFORMER "Art Tatum"
    INDEX 00 03:05:12
FILE "09 - Art Tatum - Tatum Pole Boogie.wav" WAVE
    INDEX 01 00:00:00
  TRACK 10 AUDIO
    TITLE "Willow Weep for Me"
    PERFORMER "Art Tatum"
    INDEX 00 02:22:61
FILE "10 - Art Tatum - Willow Weep for Me.wav" WAVE
    INDEX 01 00:00:00
  TRACK 11 AUDIO
    TITLE "I Cover the Waterfront"
    PERFORMER "Art Tatum"
    INDEX 00 02:51:69
FILE "11 - Art Tatum - I Cover the Waterfront.wav" WAVE
    INDEX 01 00:00:00
  TRACK 12 AUDIO
    TITLE "Aunt Hagar's Blues"
    PERFORMER "Art Tatum"
    INDEX 00 02:30:04
FILE "12 - Art Tatum - Aunt Hagar's Blues.wav" WAVE
    INDEX 01 00:00:00
  TRACK 13 AUDIO
    TITLE "Nice Work If You Can Get It"
    PERFORMER "Art Tatum"
    INDEX 00 02:41:00
FILE "13 - Art Tatum - Nice Work If You Can Get It.wav" WAVE
    INDEX 01 00:00:00
  TRACK 14 AUDIO
    TITLE "Someone to Watch Over Me"
    PERFORMER "Art Tatum"
    INDEX 00 02:45:39
FILE "14 - Art Tatum - Someone to Watch Over Me.wav" WAVE
    INDEX 01 00:00:00
  TRACK 15 AUDIO
    TITLE "Dardanella"
    PERFORMER "Art Tatum"
    INDEX 00 02:47:72
FILE "15 - Art Tatum - Dardanella.wav" WAVE
    INDEX 01 00:00:00
  TRACK 16 AUDIO
    TITLE "Time on my Hands"
    PERFORMER "Art Tatum"
    INDEX 00 02:48:12
FILE "16 - Art Tatum - Time on my Hands.wav" WAVE
    INDEX 01 00:00:00
  TRACK 17 AUDIO
    TITLE "Sweet Lorraine"
    PERFORMER "Art Tatum"
    INDEX 00 03:02:34
FILE "17 - Art Tatum - Sweet Lorraine.wav" WAVE
    INDEX 01 00:00:00
  TRACK 18 AUDIO
    TITLE "Somebody Loves Me"
    PERFORMER "Art Tatum"
    INDEX 00 02:37:13
FILE "18 - Art Tatum - Somebody Loves Me.wav" WAVE
    INDEX 01 00:00:00
  TRACK 19 AUDIO
    TITLE "Don't Blame Me"
    PERFORMER "Art Tatum"
    INDEX 00 02:44:31
FILE "19 - Art Tatum - Don't Blame Me.wav" WAVE
    INDEX 01 00:00:00
  TRACK 20 AUDIO
    TITLE "My Heart Stood Still"
    PERFORMER "Art Tatum"
    INDEX 00 02:53:20
FILE "20 - Art Tatum - My Heart Stood Still.wav" WAVE
    INDEX 01 00:00:00
  TRACK 21 AUDIO
    TITLE "You Took Advantage of Me"
    PERFORMER "Art Tatum"
    INDEX 00 03:08:19
FILE "21 - Art Tatum - You Took Advantage of Me.wav" WAVE
    INDEX 01 00:00:00
  TRACK 22 AUDIO
    TITLE "I Gotta Right to Sing the Blues"
    PERFORMER "Art Tatum"
    INDEX 00 03:12:36
FILE "22 - Art Tatum - I Gotta Right to Sing the Blues.wav" WAVE
    INDEX 01 00:00:00
 
 
CD 4
 
 
Треклист:
01. Goin' Home [03:07]
02. Blue Skies [02:50]
03. It's The Talk Of The Town [03:18]
04. Dancing In The Dark [02:55]
05. Wrap Your Troubles In Dreams [02:58]
06. Just-A-Sittin' And A-Rockin' [02:45]
07. You're Driving Me Crazy [02:22]
08. In A Sentimental Mood [03:18]
09. She's Funny That Way [02:55]
10. I'll Never Be The Same [03:22]
11. Night And Day [03:27]
12. It's Only A Paper Moon [02:53]
13. Three Little Words [02:24]
14. On The Sunny Side Of The Street [02:37]
15. Why Was I Born [02:45]
16. If I Could Be With You (One Hour Tonight) [02:47]
17. Mean To Me [02:42]
18. I Guess I Have To Change My Plans [02:26]
19. Can't We Be Friends [02:34]
20. What Is This Thing Called Love [02:36]
21. Crazy Rhythm [02:20]
22. Limehouse Blues [02:24]
23. I'm Coming Virginia [02:44]
24. The Man I Love [05:03]
 
 
Лог создания рипа
Exact Audio Copy V0.99 prebeta 4 from 23. January 2008
EAC extraction logfile from 14. April 2008, 13:18
Art Tatum / Piano Grand Master Vol 4 (Goin' Home)
Used drive  : _NEC    DVD+-RW ND-6650A   Adapter: 1  ID: 0
Read mode               : Secure
Utilize accurate stream : Yes
Defeat audio cache      : Yes
Make use of C2 pointers : No
Read offset correction                      : 48
Overread into Lead-In and Lead-Out          : No
Fill up missing offset samples with silence : Yes
Delete leading and trailing silent blocks   : No
Null samples used in CRC calculations       : Yes
Used interface                              : Installed external ASPI interface
Gap handling                                : Appended to previous track
Used output format              : User Defined Encoder
Selected bitrate                : 192 kBit/s
Quality                         : High
Add ID3 tag                     : No
Command line compressor         : C:\Program Files\Exact Audio Copy\flac-1.1.4-win\bin\flac.exe
Additional command line options : -8 -A tukey(0.25) -A gauss(0.1875) -b 4096 -V -T "artist=%a" -T "title=%t" -T "album=%g" -T "date=%y" -T "tracknumber=%n" -T "genre=%m" %s --sector-align
TOC of the extracted CD
     Track |   Start  |  Length  | Start sector | End sector
    ---------------------------------------------------------
        1  |  0:00.00 |  3:10.26 |         0    |    14275
        2  |  3:10.26 |  2:52.56 |     14276    |    27231
        3  |  6:03.07 |  3:21.05 |     27232    |    42311
        4  |  9:24.12 |  2:57.54 |     42312    |    55640
        5  | 12:21.66 |  3:01.36 |     55641    |    69251
        6  | 15:23.27 |  2:47.62 |     69252    |    81838
        7  | 18:11.14 |  2:25.39 |     81839    |    92752
        8  | 20:36.53 |  3:21.07 |     92753    |   107834
        9  | 23:57.60 |  2:58.36 |    107835    |   121220
       10  | 26:56.21 |  3:25.01 |    121221    |   136596
       11  | 30:21.22 |  3:30.32 |    136597    |   152378
       12  | 33:51.54 |  2:53.69 |    152379    |   165422
       13  | 36:45.48 |  2:24.15 |    165423    |   176237
       14  | 39:09.63 |  2:37.10 |    176238    |   188022
       15  | 41:46.73 |  2:45.00 |    188023    |   200397
       16  | 44:31.73 |  2:47.50 |    200398    |   212972
       17  | 47:19.48 |  2:42.30 |    212973    |   225152
       18  | 50:02.03 |  2:26.56 |    225153    |   236158
       19  | 52:28.59 |  2:34.14 |    236159    |   247722
       20  | 55:02.73 |  2:36.24 |    247723    |   259446
       21  | 57:39.22 |  2:20.27 |    259447    |   269973
       22  | 59:59.49 |  2:24.12 |    269974    |   280785
       23  | 62:23.61 |  2:46.47 |    280786    |   293282
       24  | 65:10.33 |  5:03.54 |    293283    |   316061
Track  1
     Filename E:\Music\Art Tatum - Piano Grand Master\Disc 4 - Goin' Home\01 - Art Tatum - Goin' Home.wav
     Pre-gap length  0:00:02.00
     Peak level 94.2 %
     Track quality 100.0 %
     Test CRC C3323C47
     Copy CRC C3323C47
     Track not present in AccurateRip database
     Copy OK
Track  2
     Filename E:\Music\Art Tatum - Piano Grand Master\Disc 4 - Goin' Home\02 - Art Tatum - Blue Skies.wav
     Pre-gap length  0:00:02.54
     Peak level 94.3 %
     Track quality 100.0 %
     Test CRC 47A4A8C6
     Copy CRC 47A4A8C6
     Track not present in AccurateRip database
     Copy OK
Track  3
     Filename E:\Music\Art Tatum - Piano Grand Master\Disc 4 - Goin' Home\03 - Art Tatum - It's The Talk Of The Town.wav
     Pre-gap length  0:00:02.54
     Peak level 84.0 %
     Track quality 100.0 %
     Test CRC 8FF9AB84
     Copy CRC 8FF9AB84
     Track not present in AccurateRip database
     Copy OK
Track  4
     Filename E:\Music\Art Tatum - Piano Grand Master\Disc 4 - Goin' Home\04 - Art Tatum - Dancing In The Dark.wav
     Pre-gap length  0:00:02.54
     Peak level 83.9 %
     Track quality 100.0 %
     Test CRC 35FD85B6
     Copy CRC 35FD85B6
     Track not present in AccurateRip database
     Copy OK
Track  5
     Filename E:\Music\Art Tatum - Piano Grand Master\Disc 4 - Goin' Home\05 - Art Tatum - Wrap Your Troubles In Dreams.wav
     Pre-gap length  0:00:02.54
     Peak level 74.9 %
     Track quality 100.0 %
     Test CRC 82FDF938
     Copy CRC 82FDF938
     Track not present in AccurateRip database
     Copy OK
Track  6
     Filename E:\Music\Art Tatum - Piano Grand Master\Disc 4 - Goin' Home\06 - Art Tatum - Just-A-Sittin' And A-Rockin'.wav
     Pre-gap length  0:00:02.54
     Peak level 94.3 %
     Track quality 100.0 %
     Test CRC 78C14829
     Copy CRC 78C14829
     Track not present in AccurateRip database
     Copy OK
Track  7
     Filename E:\Music\Art Tatum - Piano Grand Master\Disc 4 - Goin' Home\07 - Art Tatum - You're Driving Me Crazy.wav
     Pre-gap length  0:00:02.54
     Peak level 94.3 %
     Track quality 100.0 %
     Test CRC A2A48337
     Copy CRC A2A48337
     Track not present in AccurateRip database
     Copy OK
Track  8
     Filename E:\Music\Art Tatum - Piano Grand Master\Disc 4 - Goin' Home\08 - Art Tatum - In A Sentimental Mood.wav
     Pre-gap length  0:00:02.54
     Peak level 94.3 %
     Track quality 100.0 %
     Test CRC 9523DFAA
     Copy CRC 9523DFAA
     Track not present in AccurateRip database
     Copy OK
Track  9
     Filename E:\Music\Art Tatum - Piano Grand Master\Disc 4 - Goin' Home\09 - Art Tatum - She's Funny That Way.wav
     Pre-gap length  0:00:02.54
     Peak level 94.3 %
     Track quality 100.0 %
     Test CRC 105A49E5
     Copy CRC 105A49E5
     Track not present in AccurateRip database
     Copy OK
Track 10
     Filename E:\Music\Art Tatum - Piano Grand Master\Disc 4 - Goin' Home\10 - Art Tatum - I'll Never Be The Same.wav
     Pre-gap length  0:00:02.54
     Peak level 74.9 %
     Track quality 100.0 %
     Test CRC 30183491
     Copy CRC 30183491
     Track not present in AccurateRip database
     Copy OK
Track 11
     Filename E:\Music\Art Tatum - Piano Grand Master\Disc 4 - Goin' Home\11 - Art Tatum - Night And Day.wav
     Pre-gap length  0:00:02.54
     Peak level 94.3 %
     Track quality 100.0 %
     Test CRC AC59ED1C
     Copy CRC AC59ED1C
     Track not present in AccurateRip database
     Copy OK
Track 12
     Filename E:\Music\Art Tatum - Piano Grand Master\Disc 4 - Goin' Home\12 - Art Tatum - It's Only A Paper Moon.wav
     Pre-gap length  0:00:02.54
     Peak level 93.9 %
     Track quality 100.0 %
     Test CRC 9AD81D8F
     Copy CRC 9AD81D8F
     Track not present in AccurateRip database
     Copy OK
Track 13
     Filename E:\Music\Art Tatum - Piano Grand Master\Disc 4 - Goin' Home\13 - Art Tatum - Three Little Words.wav
     Peak level 94.3 %
     Track quality 100.0 %
     Test CRC ECE82527
     Copy CRC ECE82527
     Track not present in AccurateRip database
     Copy OK
Track 14
     Filename E:\Music\Art Tatum - Piano Grand Master\Disc 4 - Goin' Home\14 - Art Tatum - On The Sunny Side Of The Street.wav
     Peak level 81.7 %
     Track quality 100.0 %
     Test CRC A6AEF135
     Copy CRC A6AEF135
     Track not present in AccurateRip database
     Copy OK
Track 15
     Filename E:\Music\Art Tatum - Piano Grand Master\Disc 4 - Goin' Home\15 - Art Tatum - Why Was I Born.wav
     Peak level 89.6 %
     Track quality 100.0 %
     Test CRC 758353F7
     Copy CRC 758353F7
     Track not present in AccurateRip database
     Copy OK
Track 16
     Filename E:\Music\Art Tatum - Piano Grand Master\Disc 4 - Goin' Home\16 - Art Tatum - If I Could Be With You (One Hour Tonight).wav
     Peak level 93.5 %
     Track quality 100.0 %
     Test CRC E2D2DF34
     Copy CRC E2D2DF34
     Track not present in AccurateRip database
01:07
806
Нет комментариев. Ваш будет первым!