Поиск

2003 Shirley - Blen {ABC} [DSD64 ISO]

2003 Shirley - Blen {ABC} [DSD64 ISO]
Стили:
Издатель (лейбл):
Номер по каталогу:
AJ0008S
Носитель:
SACD
Формат:
DSD
Тип рипа:
image
Контейнер:
ISO (*.iso)
Количество каналов:
2.0
Разрядность/ЧД:
64 (2,8 MHz/1 Bit)
Битрейт аудио:
lossless
Время звучания:
01:01:30
Наличие сканов:
только обложка
Треклист:

01. Amor
02. How Could You Have The Heart To Make Me Sad
03. My Way
04. Have I Told You Lately That I Love You
05. Can’t Help Falling In Love
06. Endless Love
07. The Way We Were Memory
08. Wild Lily Also Has Spring
09. When I Fall In Love
10. Complicated Mortal Life
11. Sentimental Journey
12. Danny Boy
13. Solo River
14. A Whole New World
15. I do not care

Состав:
  • Shirley — vocals
Лог проверки качества
foobar2000 1.6.8 / Dynamic Range Meter 1.1.1
log date: 2022-01-03 15:12:45
--------------------------------------------------------------------------------
Analyzed: Shirley Lau / Blen
--------------------------------------------------------------------------------
DR         Peak         RMS     Duration Track
--------------------------------------------------------------------------------
DR8      -11.01 dB   -20.74 dB      3:26 01-Amor
DR11      -9.76 dB   -25.40 dB      4:37 02-How Could You Have The Heart To Make Me Sad
DR10      -9.64 dB   -22.26 dB      3:30 03-My Way
DR8       -8.08 dB   -19.82 dB      3:19 04-Have I Told You Lately That I Love You
DR8      -10.67 dB   -21.51 dB      4:20 05-Can’t Help Falling In Love
DR9       -9.43 dB   -21.25 dB      3:02 06-Endless Love
DR11      -9.37 dB   -22.65 dB      4:12 07-The Way We Were Memory
DR12      -8.89 dB   -23.08 dB      2:45 08-Wild Lily Also Has Spring
DR9      -10.96 dB   -23.62 dB      5:41 09-When I Fall In Love
DR10      -8.84 dB   -21.27 dB      4:08 10-Complicated Mortal Life
DR9       -6.08 dB   -19.38 dB      4:16 11-Sentimental Journey
DR10      -3.97 dB   -18.26 dB      5:47 12-Danny Boy
DR12      -7.15 dB   -21.48 dB      5:47 13-Solo River
DR12      -5.72 dB   -20.39 dB      2:37 14-A Whole New World
DR10      -6.75 dB   -19.70 dB      4:04 15-I do not care
--------------------------------------------------------------------------------
Number of tracks:  15
Official DR value: DR10
Samplerate:        2822400 Hz / PCM Samplerate: 88200 Hz
Channels:          2
Bits per sample:   1
Bitrate:           5645 kbps
Codec:             DSD64
================================================================================
По всем вопросам пишите личное сообщение пользователю M0p94ok.
12:08
117
Нет комментариев. Ваш будет первым!