Поиск

2004-2010 Soil & "Pimp" Sessions - Collection (7 albums, 1 EP, 1 single)

2004-2010 Soil & "Pimp" Sessions - Collection (7 albums, 1 EP, 1 single)
Стили:
Треклист:
Год выпуска : 2004-2010
Аудио кодек: FLAC
Тип рипа: tracks+.cue
Когда несколько лет назад я услышал ПимпМастер 2005 мне, честно скажу, сорвало крышу. В этих безумных японцев я влюбился в серьез и надолго. Мощнейший драйв энергетики. Нельзя ни в коем случае сказать, что это японский джаз, японский звук. Местами он звучит более чем по-западному. Но когда ребята начинают орать в микрофоны.... сразу вспоминаешь про национальную принадлежность музыкантов. Музыка интересная и сыгранная виртуознейшим образом. Добавлю, что очень мне нравится безгитарность звука.
о группе
История этого коллектива с явно вызывающим названием началась в 2001 году: шестеро её участников встретились в одном токийском клубе, сыгрались, через два года выступили на фестивале Fuji Rock Festival, где их и заметил один из крупнейших лейблов Японии Victor Entertainment. Пройдёт ещё какое-то время, прежде чем Джайлс Питерсон в ходе очередного гастрольного тура по Японии не услышит Soil & “Pimp” Sessions, не восхитится ими и не начнёт раскручивать японский коллектив в Европе. Под его ходатайством альбом “Pimp Master” выйдет на весьма авторитетном лейбле Compost Records (и на собственном лейбле Джайлса “Brownswood Recordings” в Англии), меломаны всплеснут руками, восхищённо комментируя своеобразный стиль игры «токийской шестерки». По аналогии с разновидностью тяжелой рок-музыки “death metal” музыканты назовут свои сочинения “death jazz” – главным образом, из-за «жестокой» игры на инструментах. Всё звучало бы довольно угрожающе, не будь это тем же вечно актуальным бибопом, сыгранным в три раза жестче и быстрее. Как выяснится позже, для японского контекста ничего из ряда вон выходящего в творчестве Soil & “Pimp” Sessions нет: на островах довольно много коллективов, увлечённо переигрывающих классический джаз с молодецким задором и свежестью. Victor Entertainment, между тем, не растерялись, и сделали из нового жанра бренд – разве что футболки с надписью “death jazz” в оборот не ввели.
 
Полная дискография такова:
* 1st album PIMPIN'
* 1st maxi single SUFFOCATION
* 2nd Album PIMP MASTER
* Mini Album SUMMER GODDESS
* 2nd Single Crush!
* 3rd Album PIMP OF THE YEAR
* 3rd Single MASHIROKE
* 4th Album 「PIMPOINT」
* 4th Single 「STORM」
* 5th Album 「PLANET PIMP」
* 6th Album 「6」
* 7th Album 「Stoned Pirates Radio」


Albums PART I
 
 
2004 - Pimpin'
Год выпуска диска: 2004
Продолжительность: 40:52
Трэклист:
1 Intro
2 Fuller Love
3 Wives And Lovers
4 Harbor
5 First Lady
6 Pimpnosis
7 Mature
8 J.D.F
9 16 Blues
10 Carnaval
11 Satsuriku No Theme
 
log
Exact Audio Copy V0.99 prebeta 4 from 23. January 2008
EAC extraction logfile from 21. December 2008, 0:20
SOIL & "PIMP" Sessions / Pimpin'
Used drive  : TEAC    DVD+-RW DVW28SLC   Adapter: 0  ID: 1
Read mode               : Secure
Utilize accurate stream : Yes
Defeat audio cache      : Yes
Make use of C2 pointers : No
Read offset correction                      : 48
Overread into Lead-In and Lead-Out          : No
Fill up missing offset samples with silence : Yes
Delete leading and trailing silent blocks   : No
Null samples used in CRC calculations       : Yes
Used interface                              : Native Win32 interface for Win NT & 2000
Gap handling                                : Appended to previous track
Used output format              : User Defined Encoder
Selected bitrate                : 224 kBit/s
Quality                         : High
Add ID3 tag                     : No
Command line compressor         : C:\Program Files\Exact Audio Copy\Flac\flac.exe
Additional command line options : -V -8 -T "artist=%a" -T "title=%t" -T "album=%g" -T "date=%y" -T "tracknumber=%n" -T "genre=%m" %s
TOC of the extracted CD
     Track |   Start  |  Length  | Start sector | End sector
    ---------------------------------------------------------
        1  |  0:00.00 |  0:49.12 |         0    |     3686
        2  |  0:49.12 |  6:14.25 |      3687    |    31761
        3  |  7:03.37 |  5:43.45 |     31762    |    57531
        4  | 12:47.07 |  4:31.40 |     57532    |    77896
        5  | 17:18.47 |  4:35.40 |     77897    |    98561
        6  | 21:54.12 |  2:01.53 |     98562    |   107689
        7  | 23:55.65 |  6:30.20 |    107690    |   136959
        8  | 30:26.10 |  2:54.12 |    136960    |   150021
        9  | 33:20.22 |  5:14.60 |    150022    |   173631
       10  | 38:35.07 |  1:16.30 |    173632    |   179361
       11  | 39:51.37 |  1:12.15 |    179362    |   184776
Track  1
     Filename C:\Users\Gibson\Music\EAC\Soil and Pimp Sessions FLAC\Pimpin\01 - Intro - SOIL & 'PIMP' Sessions - Pimpin'.wav
     Pre-gap length  0:00:02.00
     Peak level 97.9 %
     Track quality 99.7 %
     Test CRC B27DB4A6
     Copy CRC B27DB4A6
     Track not present in AccurateRip database
     Copy OK
Track  2
     Filename C:\Users\Gibson\Music\EAC\Soil and Pimp Sessions FLAC\Pimpin\02 - Fuller Love - SOIL & 'PIMP' Sessions - Pimpin'.wav
     Peak level 97.9 %
     Track quality 100.0 %
     Test CRC 84F2917C
     Copy CRC 84F2917C
     Track not present in AccurateRip database
     Copy OK
Track  3
     Filename C:\Users\Gibson\Music\EAC\Soil and Pimp Sessions FLAC\Pimpin\03 - Wives And Lovers - SOIL & 'PIMP' Sessions - Pimpin'.wav
     Peak level 100.0 %
     Track quality 100.0 %
     Test CRC C789B90E
     Copy CRC C789B90E
     Track not present in AccurateRip database
     Copy OK
Track  4
     Filename C:\Users\Gibson\Music\EAC\Soil and Pimp Sessions FLAC\Pimpin\04 - Harbor - SOIL & 'PIMP' Sessions - Pimpin'.wav
     Peak level 97.9 %
     Track quality 100.0 %
     Test CRC C7E86316
     Copy CRC C7E86316
     Track not present in AccurateRip database
     Copy OK
Track  5
     Filename C:\Users\Gibson\Music\EAC\Soil and Pimp Sessions FLAC\Pimpin\05 - First Lady - SOIL & 'PIMP' Sessions - Pimpin'.wav
     Pre-gap length  0:00:02.29
     Peak level 97.9 %
     Track quality 100.0 %
     Test CRC 996CABCB
     Copy CRC 996CABCB
     Track not present in AccurateRip database
     Copy OK
Track  6
     Filename C:\Users\Gibson\Music\EAC\Soil and Pimp Sessions FLAC\Pimpin\06 - Pimpnosis - SOIL & 'PIMP' Sessions - Pimpin'.wav
     Pre-gap length  0:00:01.01
     Peak level 97.9 %
     Track quality 100.0 %
     Test CRC 3703E00E
     Copy CRC 3703E00E
     Track not present in AccurateRip database
     Copy OK
Track  7
     Filename C:\Users\Gibson\Music\EAC\Soil and Pimp Sessions FLAC\Pimpin\07 - Mature - SOIL & 'PIMP' Sessions - Pimpin'.wav
     Pre-gap length  0:00:00.54
     Peak level 97.9 %
     Track quality 100.0 %
     Test CRC 5F9B2BD7
     Copy CRC 5F9B2BD7
     Track not present in AccurateRip database
     Copy OK
Track  8
     Filename C:\Users\Gibson\Music\EAC\Soil and Pimp Sessions FLAC\Pimpin\08 - J.D.F - SOIL & 'PIMP' Sessions - Pimpin'.wav
     Pre-gap length  0:00:02.72
     Peak level 97.9 %
     Track quality 100.0 %
     Test CRC 6F0763FC
     Copy CRC 6F0763FC
     Track not present in AccurateRip database
     Copy OK
Track  9
     Filename C:\Users\Gibson\Music\EAC\Soil and Pimp Sessions FLAC\Pimpin\09 - 16 Blues - SOIL & 'PIMP' Sessions - Pimpin'.wav
     Pre-gap length  0:00:00.14
     Peak level 97.9 %
     Track quality 99.9 %
     Test CRC 443364E7
     Copy CRC 443364E7
     Track not present in AccurateRip database
     Copy OK
Track 10
     Filename C:\Users\Gibson\Music\EAC\Soil and Pimp Sessions FLAC\Pimpin\10 - Carnaval - SOIL & 'PIMP' Sessions - Pimpin'.wav
     Pre-gap length  0:00:03.44
     Peak level 97.9 %
     Track quality 99.8 %
     Test CRC CBDF9010
     Copy CRC CBDF9010
     Track not present in AccurateRip database
     Copy OK
Track 11
     Filename C:\Users\Gibson\Music\EAC\Soil and Pimp Sessions FLAC\Pimpin\11 - Satsuriku No Theme - SOIL & 'PIMP' Sessions - Pimpin'.wav
     Peak level 97.9 %
     Track quality 100.0 %
     Test CRC BBE78053
     Copy CRC BBE78053
     Track not present in AccurateRip database
     Copy OK
None of the tracks are present in the AccurateRip database
No errors occurred
End of status report
 
cue
REM GENRE Jazz+Funk
REM DATE 2004
REM DISCID 7D099F0B
REM COMMENT "ExactAudioCopy v0.99pb4"
PERFORMER "SOIL & 'PIMP' Sessions"
TITLE "Pimpin'"
FILE "01 - Intro - SOIL & 'PIMP' Sessions - Pimpin'.wav" WAVE
  TRACK 01 AUDIO
    TITLE "Intro"
    PERFORMER "SOIL & 'PIMP' Sessions"
    INDEX 01 00:00:00
FILE "02 - Fuller Love - SOIL & 'PIMP' Sessions - Pimpin'.wav" WAVE
  TRACK 02 AUDIO
    TITLE "Fuller Love"
    PERFORMER "SOIL & 'PIMP' Sessions"
    INDEX 01 00:00:00
FILE "03 - Wives And Lovers - SOIL & 'PIMP' Sessions - Pimpin'.wav" WAVE
  TRACK 03 AUDIO
    TITLE "Wives And Lovers"
    PERFORMER "SOIL & 'PIMP' Sessions"
    INDEX 01 00:00:00
FILE "04 - Harbor - SOIL & 'PIMP' Sessions - Pimpin'.wav" WAVE
  TRACK 04 AUDIO
    TITLE "Harbor"
    PERFORMER "SOIL & 'PIMP' Sessions"
    INDEX 01 00:00:00
  TRACK 05 AUDIO
    TITLE "First Lady"
    PERFORMER "SOIL & 'PIMP' Sessions"
    INDEX 00 04:29:11
FILE "05 - First Lady - SOIL & 'PIMP' Sessions - Pimpin'.wav" WAVE
    INDEX 01 00:00:00
  TRACK 06 AUDIO
    TITLE "Pimpnosis"
    PERFORMER "SOIL & 'PIMP' Sessions"
    INDEX 00 04:34:39
FILE "06 - Pimpnosis - SOIL & 'PIMP' Sessions - Pimpin'.wav" WAVE
    INDEX 01 00:00:00
  TRACK 07 AUDIO
    TITLE "Mature"
    PERFORMER "SOIL & 'PIMP' Sessions"
    INDEX 00 02:00:74
FILE "07 - Mature - SOIL & 'PIMP' Sessions - Pimpin'.wav" WAVE
    INDEX 01 00:00:00
  TRACK 08 AUDIO
    TITLE "J.D.F"
    PERFORMER "SOIL & 'PIMP' Sessions"
    INDEX 00 06:27:23
FILE "08 - J.D.F - SOIL & 'PIMP' Sessions - Pimpin'.wav" WAVE
    INDEX 01 00:00:00
  TRACK 09 AUDIO
    TITLE "16 Blues"
    PERFORMER "SOIL & 'PIMP' Sessions"
    INDEX 00 02:53:73
FILE "09 - 16 Blues - SOIL & 'PIMP' Sessions - Pimpin'.wav" WAVE
    INDEX 01 00:00:00
  TRACK 10 AUDIO
    TITLE "Carnaval"
    PERFORMER "SOIL & 'PIMP' Sessions"
    INDEX 00 05:11:16
FILE "10 - Carnaval - SOIL & 'PIMP' Sessions - Pimpin'.wav" WAVE
    INDEX 01 00:00:00
FILE "11 - Satsuriku No Theme - SOIL & 'PIMP' Sessions - Pimpin'.wav" WAVE
  TRACK 11 AUDIO
    TITLE "Satsuriku No Theme"
    PERFORMER "SOIL & 'PIMP' Sessions"
    INDEX 01 00:00:00
 
2005 - Pimp Master
Год выпуска диска: 2005
Продолжительность:51:29
Трэклист:
01-pimp_master
02-no_taboo
03-filter
04-suffocation
05-stinger
06-waltz_for_goddess
07-avalanche
08-a_wheel_within_a_wheel
09-j.d.f
10-low_life
11-no_matter
12-mo_better_blues
13-wasted_time
14-master_of_pimp
15-hirameku yaiba
 
log
Exact Audio Copy V0.99 prebeta 4 from 23. January 2008
EAC extraction logfile from 21. December 2008, 16:33
SOIL & "PIMP" SESSIONS / Pimp Master
Used drive  : TEAC    DVD+-RW DVW28SLC   Adapter: 0  ID: 1
Read mode               : Secure
Utilize accurate stream : Yes
Defeat audio cache      : Yes
Make use of C2 pointers : No
Read offset correction                      : 48
Overread into Lead-In and Lead-Out          : No
Fill up missing offset samples with silence : Yes
Delete leading and trailing silent blocks   : No
Null samples used in CRC calculations       : Yes
Used interface                              : Native Win32 interface for Win NT & 2000
Gap handling                                : Appended to previous track
Used output format              : User Defined Encoder
Selected bitrate                : 224 kBit/s
Quality                         : High
Add ID3 tag                     : No
Command line compressor         : C:\Program Files\Exact Audio Copy\Flac\flac.exe
Additional command line options : -V -8 -T "artist=%a" -T "title=%t" -T "album=%g" -T "date=%y" -T "tracknumber=%n" -T "genre=%m" %s
TOC of the extracted CD
     Track |   Start  |  Length  | Start sector | End sector
    ---------------------------------------------------------
        1  |  0:00.00 |  1:54.00 |         0    |     8549
        2  |  1:54.00 |  3:39.07 |      8550    |    24981
        3  |  5:33.07 |  0:06.62 |     24982    |    25493
        4  |  5:39.69 |  3:43.37 |     25494    |    42255
        5  |  9:23.31 |  4:26.30 |     42256    |    62235
        6  | 13:49.61 |  4:27.29 |     62236    |    82289
        7  | 18:17.15 |  5:41.54 |     82290    |   107918
        8  | 23:58.69 |  6:49.33 |    107919    |   138626
        9  | 30:48.27 |  2:42.30 |    138627    |   150806
       10  | 33:30.57 |  3:50.55 |    150807    |   168111
       11  | 37:21.37 |  1:06.18 |    168112    |   173079
       12  | 38:27.55 |  5:34.57 |    173080    |   198186
       13  | 44:02.37 |  5:30.74 |    198187    |   223010
       14  | 49:33.36 |  0:52.27 |    223011    |   226937
       15  | 50:25.63 |  1:14.02 |    226938    |   232489
Track  1
     Filename C:\Users\Gibson\Music\EAC\Soil and Pimp Sessions 1 FLAC\Pimp Master\01 - Pimp Master - SOIL & 'PIMP' SESSIONS - Pimp Master.wav
     Pre-gap length  0:00:02.00
     Peak level 100.0 %
     Track quality 100.0 %
     Test CRC 235CBDF0
     Copy CRC 235CBDF0
     Track not present in AccurateRip database
     Copy OK
Track  2
     Filename C:\Users\Gibson\Music\EAC\Soil and Pimp Sessions 1 FLAC\Pimp Master\02 - No Taboo - SOIL & 'PIMP' SESSIONS - Pimp Master.wav
     Peak level 100.0 %
     Track quality 100.0 %
     Test CRC 2738F3E2
     Copy CRC 2738F3E2
     Track not present in AccurateRip database
     Copy OK
Track  3
     Filename C:\Users\Gibson\Music\EAC\Soil and Pimp Sessions 1 FLAC\Pimp Master\03 - Filter - SOIL & 'PIMP' SESSIONS - Pimp Master.wav
     Peak level 100.0 %
     Track quality 100.0 %
     Test CRC 9D2C035A
     Copy CRC 9D2C035A
     Track not present in AccurateRip database
     Copy OK
Track  4
     Filename C:\Users\Gibson\Music\EAC\Soil and Pimp Sessions 1 FLAC\Pimp Master\04 - Suffocation - SOIL & 'PIMP' SESSIONS - Pimp Master.wav
     Peak level 100.0 %
     Track quality 99.9 %
     Test CRC 7A178717
     Copy CRC 7A178717
     Track not present in AccurateRip database
     Copy OK
Track  5
     Filename C:\Users\Gibson\Music\EAC\Soil and Pimp Sessions 1 FLAC\Pimp Master\05 - Stinger - SOIL & 'PIMP' SESSIONS - Pimp Master.wav
     Peak level 100.0 %
     Track quality 100.0 %
     Test CRC 0AD83726
     Copy CRC 0AD83726
     Track not present in AccurateRip database
     Copy OK
Track  6
     Filename C:\Users\Gibson\Music\EAC\Soil and Pimp Sessions 1 FLAC\Pimp Master\06 - Waltz For Goddess - SOIL & 'PIMP' SESSIONS - Pimp Master.wav
     Pre-gap length  0:00:01.02
     Peak level 100.0 %
     Track quality 100.0 %
     Test CRC E63A47D9
     Copy CRC E63A47D9
     Track not present in AccurateRip database
     Copy OK
Track  7
     Filename C:\Users\Gibson\Music\EAC\Soil and Pimp Sessions 1 FLAC\Pimp Master\07 - Avalanche - SOIL & 'PIMP' SESSIONS - Pimp Master.wav
     Pre-gap length  0:00:01.39
     Peak level 100.0 %
     Track quality 100.0 %
     Test CRC 2A6BB403
     Copy CRC 2A6BB403
     Track not present in AccurateRip database
     Copy OK
Track  8
     Filename C:\Users\Gibson\Music\EAC\Soil and Pimp Sessions 1 FLAC\Pimp Master\08 - A Wheel Within A Wheel - SOIL & 'PIMP' SESSIONS - Pimp Master.wav
     Pre-gap length  0:00:01.01
     Peak level 100.0 %
     Track quality 99.9 %
     Test CRC 291377BA
     Copy CRC 291377BA
     Track not present in AccurateRip database
     Copy OK
Track  9
     Filename C:\Users\Gibson\Music\EAC\Soil and Pimp Sessions 1 FLAC\Pimp Master\09 - J.D.F # - SOIL & 'PIMP' SESSIONS - Pimp Master.wav
     Peak level 100.0 %
     Track quality 100.0 %
     Test CRC D3DB31E7
     Copy CRC D3DB31E7
     Track not present in AccurateRip database
     Copy OK
Track 10
     Filename C:\Users\Gibson\Music\EAC\Soil and Pimp Sessions 1 FLAC\Pimp Master\10 - Low Life - SOIL & 'PIMP' SESSIONS - Pimp Master.wav
     Pre-gap length  0:00:02.40
     Peak level 100.0 %
     Track quality 100.0 %
     Test CRC 8A671574
     Copy CRC 8A671574
     Track not present in AccurateRip database
     Copy OK
Track 11
     Filename C:\Users\Gibson\Music\EAC\Soil and Pimp Sessions 1 FLAC\Pimp Master\11 - No Matter - SOIL & 'PIMP' SESSIONS - Pimp Master.wav
     Pre-gap length  0:00:03.02
     Peak level 77.9 %
     Track quality 100.0 %
     Test CRC 2F0918AB
     Copy CRC 2F0918AB
     Track not present in AccurateRip database
     Copy OK
Track 12
     Filename C:\Users\Gibson\Music\EAC\Soil and Pimp Sessions 1 FLAC\Pimp Master\12 - Mo' Better Blues - SOIL & 'PIMP' SESSIONS - Pimp Master.wav
     Peak level 100.0 %
     Track quality 100.0 %
     Test CRC EB59EB1A
     Copy CRC EB59EB1A
     Track not present in AccurateRip database
     Copy OK
Track 13
     Filename C:\Users\Gibson\Music\EAC\Soil and Pimp Sessions 1 FLAC\Pimp Master\13 - Wasted Time - SOIL & 'PIMP' SESSIONS - Pimp Master.wav
     Pre-gap length  0:00:01.01
     Peak level 100.0 %
     Track quality 100.0 %
     Test CRC 461A87BC
     Copy CRC 461A87BC
     Track not present in AccurateRip database
     Copy OK
Track 14
     Filename C:\Users\Gibson\Music\EAC\Soil and Pimp Sessions 1 FLAC\Pimp Master\14 - Master Of Pimp - SOIL & 'PIMP' SESSIONS - Pimp Master.wav
     Peak level 100.0 %
     Track quality 100.0 %
     Test CRC A112B05D
     Copy CRC A112B05D
     Track not present in AccurateRip database
     Copy OK
Track 15
     Filename C:\Users\Gibson\Music\EAC\Soil and Pimp Sessions 1 FLAC\Pimp Master\15 - Hirameku Yaiba - SOIL & 'PIMP' SESSIONS - Pimp Master.wav
     Peak level 100.0 %
     Track quality 99.8 %
     Test CRC 64104263
     Copy CRC 64104263
     Track not present in AccurateRip database
     Copy OK
None of the tracks are present in the AccurateRip database
No errors occurred
End of status report
 
cue
REM GENRE Jazz
REM DATE 2005
REM DISCID B40C1B0F
REM COMMENT "ExactAudioCopy v0.99pb4"
PERFORMER "SOIL & 'PIMP' SESSIONS"
TITLE "Pimp Master"
FILE "01 - Pimp Master - SOIL & 'PIMP' SESSIONS - Pimp Master.wav" WAVE
  TRACK 01 AUDIO
    TITLE "Pimp Master"
    PERFORMER "SOIL & 'PIMP' SESSIONS"
    INDEX 01 00:00:00
FILE "02 - No Taboo - SOIL & 'PIMP' SESSIONS - Pimp Master.wav" WAVE
  TRACK 02 AUDIO
    TITLE "No Taboo"
    PERFORMER "SOIL & 'PIMP' SESSIONS"
    INDEX 01 00:00:00
FILE "03 - Filter - SOIL & 'PIMP' SESSIONS - Pimp Master.wav" WAVE
  TRACK 03 AUDIO
    TITLE "Filter"
    PERFORMER "SOIL & 'PIMP' SESSIONS"
    INDEX 01 00:00:00
FILE "04 - Suffocation - SOIL & 'PIMP' SESSIONS - Pimp Master.wav" WAVE
  TRACK 04 AUDIO
    TITLE "Suffocation"
    PERFORMER "SOIL & 'PIMP' SESSIONS"
    INDEX 01 00:00:00
FILE "05 - Stinger - SOIL & 'PIMP' SESSIONS - Pimp Master.wav" WAVE
  TRACK 05 AUDIO
    TITLE "Stinger"
    PERFORMER "SOIL & 'PIMP' SESSIONS"
    INDEX 01 00:00:00
  TRACK 06 AUDIO
    TITLE "Waltz For Goddess"
    PERFORMER "SOIL & 'PIMP' SESSIONS"
    INDEX 00 04:25:28
FILE "06 - Waltz For Goddess - SOIL & 'PIMP' SESSIONS - Pimp Master.wav" WAVE
    INDEX 01 00:00:00
  TRACK 07 AUDIO
    TITLE "Avalanche"
    PERFORMER "SOIL & 'PIMP' SESSIONS"
    INDEX 00 04:25:65
FILE "07 - Avalanche - SOIL & 'PIMP' SESSIONS - Pimp Master.wav" WAVE
    INDEX 01 00:00:00
  TRACK 08 AUDIO
    TITLE "A Wheel Within A Wheel"
    PERFORMER "SOIL & 'PIMP' SESSIONS"
    INDEX 00 05:40:53
FILE "08 - A Wheel Within A Wheel - SOIL & 'PIMP' SESSIONS - Pimp Master.wav" WAVE
    INDEX 01 00:00:00
FILE "09 - J.D.F # - SOIL & 'PIMP' SESSIONS - Pimp Master.wav" WAVE
  TRACK 09 AUDIO
    TITLE "J.D.F #"
    PERFORMER "SOIL & 'PIMP' SESSIONS"
    INDEX 01 00:00:00
  TRACK 10 AUDIO
    TITLE "Low Life"
    PERFORMER "SOIL & 'PIMP' SESSIONS"
    INDEX 00 02:39:65
FILE "10 - Low Life - SOIL & 'PIMP' SESSIONS - Pimp Master.wav" WAVE
    INDEX 01 00:00:00
  TRACK 11 AUDIO
    TITLE "No Matter"
    PERFORMER "SOIL & 'PIMP' SESSIONS"
    INDEX 00 03:47:53
FILE "11 - No Matter - SOIL & 'PIMP' SESSIONS - Pimp Master.wav" WAVE
    INDEX 01 00:00:00
FILE "12 - Mo' Better Blues - SOIL & 'PIMP' SESSIONS - Pimp Master.wav" WAVE
  TRACK 12 AUDIO
    TITLE "Mo' Better Blues"
    PERFORMER "SOIL & 'PIMP' SESSIONS"
    INDEX 01 00:00:00
  TRACK 13 AUDIO
    TITLE "Wasted Time"
    PERFORMER "SOIL & 'PIMP' SESSIONS"
    INDEX 00 05:33:56
FILE "13 - Wasted Time - SOIL & 'PIMP' SESSIONS - Pimp Master.wav" WAVE
    INDEX 01 00:00:00
FILE "14 - Master Of Pimp - SOIL & 'PIMP' SESSIONS - Pimp Master.wav" WAVE
  TRACK 14 AUDIO
    TITLE "Master Of Pimp"
    PERFORMER "SOIL & 'PIMP' SESSIONS"
    INDEX 01 00:00:00
FILE "15 - Hirameku Yaiba - SOIL & 'PIMP' SESSIONS - Pimp Master.wav" WAVE
  TRACK 15 AUDIO
    TITLE "Hirameku Yaiba"
    PERFORMER "SOIL & 'PIMP' SESSIONS"
    INDEX 01 00:00:00
 
2005 - Pimp Master [BW001CD] [UK 2006]
Год выпуска диска: 2006
Продолжительность: 01:03:37
Трэклист:
01. Pimp Master Intro
02. No Taboo
03. Filter Interlude
04. Suffocation
05. Stinger
06. Waltz for Goddess
07. Avalanche
08. A Wheel within a Wheel
09. J.D.F
10. Low Life
11. No Matter
12. Mo Better Blues
13. Wasted Time
14. Master of Pimp
15. Hirameku Yaiba
16. Fuller Love
17. Wives & Lovers
 
log
X Lossless Decoder version 20100904 (120.7)
XLD extraction logfile from 2010-09-06 17:36:01 +0200
Soil & "Pimp" Sessions / Pimp Master
Used drive : MATSHITA DVD-R   UJ-857E (revision ZF1E)
Use cdparanoia mode     : YES (CDParanoia III 10.2 engine)
Disable audio cache     : OK for the drive with cache less than 2750KB
Make use of C2 pointers : NO
Read offset correction  : 102
Max retry count         : 100
Gap status              : Analyzed, Appended
TOC of the extracted CD
     Track |   Start  |  Length  | Start sector | End sector
    ---------------------------------------------------------
        1  | 00:00:00 | 01:54:00 |         0    |     8549
        2  | 01:54:00 | 03:39:07 |      8550    |    24981
        3  | 05:33:07 | 00:06:62 |     24982    |    25493
        4  | 05:39:69 | 03:43:37 |     25494    |    42255
        5  | 09:23:31 | 04:26:30 |     42256    |    62235
        6  | 13:49:61 | 04:27:29 |     62236    |    82289
        7  | 18:17:15 | 05:41:54 |     82290    |   107918
        8  | 23:58:69 | 06:49:33 |    107919    |   138626
        9  | 30:48:27 | 02:42:30 |    138627    |   150806
       10  | 33:30:57 | 03:50:55 |    150807    |   168111
       11  | 37:21:37 | 01:06:18 |    168112    |   173079
       12  | 38:27:55 | 05:34:57 |    173080    |   198186
       13  | 44:02:37 | 05:30:74 |    198187    |   223010
       14  | 49:33:36 | 00:52:27 |    223011    |   226937
       15  | 50:25:63 | 01:12:62 |    226938    |   232399
       16  | 51:38:50 | 06:14:17 |    232400    |   260466
       17  | 57:52:67 | 05:45:46 |    260467    |   286387
All Tracks
    Album gain             : -9.29 dB
    Peak                   : 0.998901
Track 01
    Filename : /Users/-/Desktop/SOIL & ''PIMP'' Sessions - [2005] - Pimp Master/01 - Pimp Master Intro.flac
    Pre-gap length : 00:02:00
    Track gain             : 1.28 dB
    Peak                   : 0.998901
    CRC32 hash (test run)  : DDF2ED98
    CRC32 hash             : DDF2ED98
    CRC32 hash (skip zero) : 6D11F2E9
    AccurateRip signature  : 574EF93E
        ->Accurately ripped! (confidence 3)
    Statistics
        Read error                           : 0
        Skipped (treated as error)           : 0
        Edge jitter error (maybe fixed)      : 0
        Atom jitter error (maybe fixed)      : 0
        Drift error (maybe fixed)            : 0
        Dropped bytes error (maybe fixed)    : 0
        Duplicated bytes error (maybe fixed) : 0
        Inconsistency in error sectors       : 0
Track 02
    Filename : /Users/-/Desktop/SOIL & ''PIMP'' Sessions - [2005] - Pimp Master/02 - No Taboo (Motoharu).flac
    Track gain             : -9.96 dB
    Peak                   : 0.998901
    CRC32 hash (test run)  : ADE1D464
    CRC32 hash             : ADE1D464
    CRC32 hash (skip zero) : 9DBA35C4
    AccurateRip signature  : 66FBCFA0
        ->Accurately ripped! (confidence 3)
    Statistics
        Read error                           : 0
        Skipped (treated as error)           : 0
        Edge jitter error (maybe fixed)      : 0
        Atom jitter error (maybe fixed)      : 0
        Drift error (maybe fixed)            : 0
        Dropped bytes error (maybe fixed)    : 0
        Duplicated bytes error (maybe fixed) : 0
        Inconsistency in error sectors       : 0
Track 03
    Filename : /Users/-/Desktop/SOIL & ''PIMP'' Sessions - [2005] - Pimp Master/03 - Filter Interlude.flac
    Track gain             : -9.26 dB
    Peak                   : 0.998901
    CRC32 hash (test run)  : 2C953A79
    CRC32 hash             : 2C953A79
    CRC32 hash (skip zero) : 0393ACCF
    AccurateRip signature  : 80BD0EA2
        ->Accurately ripped! (confidence 3)
    Statistics
        Read error                           : 0
        Skipped (treated as error)           : 0
        Edge jitter error (maybe fixed)      : 0
        Atom jitter error (maybe fixed)      : 0
        Drift error (maybe fixed)            : 0
        Dropped bytes error (maybe fixed)    : 0
        Duplicated bytes error (maybe fixed) : 0
        Inconsistency in error sectors       : 0
Track 04
    Filename : /Users/-/Desktop/SOIL & ''PIMP'' Sessions - [2005] - Pimp Master/04 - Suffocation (Tabu Zombie).flac
    Track gain             : -10.05 dB
    Peak                   : 0.998901
    CRC32 hash (test run)  : 1DFC7C52
    CRC32 hash             : 1DFC7C52
    CRC32 hash (skip zero) : 8E60AE2A
    AccurateRip signature  : 843676D0
        ->Accurately ripped! (confidence 3)
    Statistics
        Read error                           : 0
        Skipped (treated as error)           : 0
        Edge jitter error (maybe fixed)      : 0
        Atom jitter error (maybe fixed)      : 0
        Drift error (maybe fixed)            : 0
        Dropped bytes error (maybe fixed)    : 0
        Duplicated bytes error (maybe fixed) : 0
        Inconsistency in error sectors       : 0
Track 05
    Filename : /Users/-/Desktop/SOIL & ''PIMP'' Sessions - [2005] - Pimp Master/05 - Stinger (Shacho, Midoryn).flac
    Track gain             : -9.11 dB
    Peak                   : 0.998901
    CRC32 hash (test run)  : 09C51CAA
    CRC32 hash             : 09C51CAA
    CRC32 hash (skip zero) : 3C24E691
    AccurateRip signature  : 706E7657
        ->Accurately ripped! (confidence 3)
    Statistics
        Read error                           : 0
        Skipped (treated as error)           : 0
        Edge jitter error (maybe fixed)      : 0
        Atom jitter error (maybe fixed)      : 0
        Drift error (maybe fixed)            : 0
        Dropped bytes error (maybe fixed)    : 0
        Duplicated bytes error (maybe fixed) : 0
        Inconsistency in error sectors       : 0
Track 06
    Filename : /Users/-/Desktop/SOIL & ''PIMP'' Sessions - [2005] - Pimp Master/06 - Waltz for Goddess (Shacho).flac
    Track gain             : -9.85 dB
    Peak                   : 0.998901
    CRC32 hash (test run)  : 7D7D9074
    CRC32 hash             : 7D7D9074
    CRC32 hash (skip zero) : E2C7041C
    AccurateRip signature  : 43CD8171
        ->Accurately ripped! (confidence 3)
    Statistics
        Read error                           : 0
        Skipped (treated as error)           : 0
        Edge jitter error (maybe fixed)      : 0
        Atom jitter error (maybe fixed)      : 0
        Drift error (maybe fixed)            : 0
        Dropped bytes error (maybe fixed)    : 0
        Duplicated bytes error (maybe fixed) : 0
        Inconsistency in error sectors       : 0
Track 07
    Filename : /Users/-/Desktop/SOIL & ''PIMP'' Sessions - [2005] - Pimp Master/07 - Avalanche (Shacho).flac
    Track gain             : -9.21 dB
    Peak                   : 0.998901
    CRC32 hash (test run)  : 93B55032
    CRC32 hash             : 93B55032
    CRC32 hash (skip zero) : 617CF8C6
    AccurateRip signature  : 47B1ECB8
        ->Accurately ripped! (confidence 3)
    Statistics
        Read error                           : 0
        Skipped (treated as error)           : 0
        Edge jitter error (maybe fixed)      : 0
        Atom jitter error (maybe fixed)      : 0
        Drift error (maybe fixed)            : 0
        Dropped bytes error (maybe fixed)    : 0
        Duplicated bytes error (maybe fixed) : 0
        Inconsistency in error sectors       : 0
Track 08
    Filename : /Users/-/Desktop/SOIL & ''PIMP'' Sessions - [2005] - Pimp Master/08 - A Wheel within a Wheel (Robert Watson).flac
    Track gain             : -10.54 dB
    Peak                   : 0.998901
    CRC32 hash (test run)  : 64708A3B
    CRC32 hash             : 64708A3B
    CRC32 hash (skip zero) : 945D3F97
    AccurateRip signature  : A443A655
        ->Accurately ripped! (confidence 3)
    Statistics
        Read error                           : 0
        Skipped (treated as error)           : 0
        Edge jitter error (maybe fixed)      : 0
        Atom jitter error (maybe fixed)      : 0
        Drift error (maybe fixed)            : 0
        Dropped bytes error (maybe fixed)    : 0
        Duplicated bytes error (maybe fixed) : 0
        Inconsistency in error sectors       : 0
Track 09
    Filename : /Users/-/Desktop/SOIL & ''PIMP'' Sessions - [2005] - Pimp Master/09 - J.D.F (Josei).flac
    Track gain             : -6.10 dB
    Peak                   : 0.998901
    CRC32 hash (test run)  : F7C08FAA
    CRC32 hash             : F7C08FAA
    CRC32 hash (skip zero) : ED053D16
    AccurateRip signature  : 1541A1E9
        ->Accurately ripped! (confidence 3)
    Statistics
        Read error                           : 0
        Skipped (treated as error)           : 0
        Edge jitter error (maybe fixed)      : 0
        Atom jitter error (maybe fixed)      : 0
        Drift error (maybe fixed)            : 0
        Dropped bytes error (maybe fixed)    : 0
        Duplicated bytes error (maybe fixed) : 0
        Inconsistency in error sectors       : 0
Track 10
    Filename : /Users/-/Desktop/SOIL & ''PIMP'' Sessions - [2005] - Pimp Master/10 - Low Life (Josei).flac
    Track gain             : -8.39 dB
    Peak                   : 0.998901
    CRC32 hash (test run)  : F23990C2
    CRC32 hash             : F23990C2
    CRC32 hash (skip zero) : 50A0D790
    AccurateRip signature  : 292A054D
        ->Accurately ripped! (confidence 3)
    Statistics
        Read error                           : 0
        Skipped (treated as error)           : 0
        Edge jitter error (maybe fixed)      : 0
        Atom jitter error (maybe fixed)      : 0
        Drift error (maybe fixed)            : 0
        Dropped bytes error (maybe fixed)    : 0
        Duplicated bytes error (maybe fixed) : 0
        Inconsistency in error sectors       : 0
Track 11
    Filename : /Users/-/Desktop/SOIL & ''PIMP'' Sessions - [2005] - Pimp Master/11 - No Matter (Shacho, Tabu Zombie).flac
    Track gain             : 5.69 dB
    Peak                   : 0.779541
    CRC32 hash (test run)  : DFEABE11
    CRC32 hash             : DFEABE11
    CRC32 hash (skip zero) : 8A4E5462
    AccurateRip signature  : 9B5D69D3
        ->Accurately ripped! (confidence 3)
    Statistics
        Read error                           : 0
        Skipped (treated as error)           : 0
        Edge jitter error (maybe fixed)      : 0
        Atom jitter error (maybe fixed)      : 0
        Drift error (maybe fixed)            : 0
        Dropped bytes error (maybe fixed)    : 0
        Duplicated bytes error (maybe fixed) : 0
        Inconsistency in error sectors       : 0
Track 12
    Filename : /Users/-/Desktop/SOIL & ''PIMP'' Sessions - [2005] - Pimp Master/12 - Mo Better Blues (Bill Lee).flac
    Track gain             : -6.04 dB
    Peak                   : 0.998901
    CRC32 hash (test run)  : 3475F4AC
    CRC32 hash             : 3475F4AC
    CRC32 hash (skip zero) : E625DE9D
    AccurateRip signature  : A8AB6646
        ->Accurately ripped! (confidence 3)
    Statistics
        Read error                           : 0
        Skipped (treated as error)           : 0
        Edge jitter error (maybe fixed)      : 0
        Atom jitter error (maybe fixed)      : 0
        Drift error (maybe fixed)            : 0
        Dropped bytes error (maybe fixed)    : 0
        Duplicated bytes error (maybe fixed) : 0
        Inconsistency in error sectors       : 0
Track 13
    Filename : /Users/-/Desktop/SOIL & ''PIMP'' Sessions - [2005] - Pimp Master/13 - Wasted Time (Tabu Zombie).flac
    Track gain             : -9.51 dB
    Peak                   : 0.998901
    CRC32 hash (test run)  : 92535591
    CRC32 hash             : 92535591
    CRC32 hash (skip zero) : 05B2ECE4
    AccurateRip signature  : 5F56E1C5
        ->Accurately ripped! (confidence 3)
    Statistics
        Read error                           : 0
        Skipped (treated as error)           : 0
        Edge jitter error (maybe fixed)      : 0
        Atom jitter error (maybe fixed)      : 0
        Drift error (maybe fixed)            : 0
        Dropped bytes error (maybe fixed)    : 0
        Duplicated bytes error (maybe fixed) : 0
        Inconsistency in error sectors       : 0
Track 14
    Filename : /Users/-/Desktop/SOIL & ''PIMP'' Sessions - [2005] - Pimp Master/14 - Master of Pimp (Shacho, Tabu Zombie).flac
    Track gain             : -9.47 dB
    Peak                   : 0.998901
    CRC32 hash (test run)  : 805F83E5
    CRC32 hash             : 805F83E5
    CRC32 hash (skip zero) : CC9BC303
    AccurateRip signature  : 498BAD51
        ->Accurately ripped! (confidence 3)
    Statistics
        Read error                           : 0
        Skipped (treated as error)           : 0
        Edge jitter error (maybe fixed)      : 0
        Atom jitter error (maybe fixed)      : 0
        Drift error (maybe fixed)            : 0
        Dropped bytes error (maybe fixed)    : 0
        Duplicated bytes error (maybe fixed) : 0
        Inconsistency in error sectors       : 0
Track 15
    Filename : /Users/-/Desktop/SOIL & ''PIMP'' Sessions - [2005] - Pimp Master/15 - Hirameku Yaiba (Shacho, Tabu Zombie).flac
    Track gain             : -11.12 dB
    Peak                   : 0.998901
    CRC32 hash (test run)  : 2F49FA62
    CRC32 hash             : 2F49FA62
    CRC32 hash (skip zero) : F1058974
    AccurateRip signature  : 14B2F5DA
        ->Accurately ripped! (confidence 3)
    Statistics
        Read error                           : 0
        Skipped (treated as error)           : 0
        Edge jitter error (maybe fixed)      : 0
        Atom jitter error (maybe fixed)      : 0
        Drift error (maybe fixed)            : 0
        Dropped bytes error (maybe fixed)    : 0
        Duplicated bytes error (maybe fixed) : 0
        Inconsistency in error sectors       : 0
Track 16
    Filename : /Users/-/Desktop/SOIL & ''PIMP'' Sessions - [2005] - Pimp Master/16 - Fuller Love (Robert Watson).flac
    Pre-gap length : 00:00:61
    Track gain             : -7.36 dB
    Peak                   : 0.873230
    CRC32 hash (test run)  : 184ECA4F
    CRC32 hash             : 184ECA4F
    CRC32 hash (skip zero) : CC288362
    AccurateRip signature  : 05364F43
        ->Accurately ripped! (confidence 3)
    Statistics
        Read error                           : 0
        Skipped (treated as error)           : 0
        Edge jitter error (maybe fixed)      : 0
        Atom jitter error (maybe fixed)      : 0
        Drift error (maybe fixed)            : 0
        Dropped bytes error (maybe fixed)    : 0
        Duplicated bytes error (maybe fixed) : 0
        Inconsistency in error sectors       : 0
Track 17
    Filename : /Users/-/Desktop/SOIL & ''PIMP'' Sessions - [2005] - Pimp Master/17 - Wives & Lovers (Burt Bacharach & Hal David).flac
    Track gain             : -8.21 dB
    Peak                   : 0.891266
    CRC32 hash (test run)  : 749D008C
    CRC32 hash             : 749D008C
    CRC32 hash (skip zero) : 9AEDC258
    AccurateRip signature  : 5A1CAE0C
        ->Accurately ripped! (confidence 3)
    Statistics
        Read error                           : 0
        Skipped (treated as error)           : 0
        Edge jitter error (maybe fixed)      : 0
        Atom jitter error (maybe fixed)      : 0
        Drift error (maybe fixed)            : 0
        Dropped bytes error (maybe fixed)    : 0
        Duplicated bytes error (maybe fixed) : 0
        Inconsistency in error sectors       : 0
No errors occurred
End of status report
 
cue
TITLE "Pimp Master"
PERFORMER "Soil & "Pimp" Sessions"
CATALOG 4988002471669
REM GENRE "Jazz"
REM DATE 2005
REM DISCID CA0EEA11
FILE "01 - Pimp Master Intro.wav" WAVE
  TRACK 01 AUDIO
    TITLE "Pimp Master Intro"
    ISRC GBMEF0600013
    INDEX 01 00:00:00
FILE "02 - No Taboo.wav" WAVE
  TRACK 02 AUDIO
    TITLE "No Taboo (Motoharu)"
    ISRC GBMEF0600014
    INDEX 01 00:00:00
FILE "03 - Filter Interlude.wav" WAVE
  TRACK 03 AUDIO
    TITLE "Filter Interlude"
    ISRC GBMEF0600015
    INDEX 01 00:00:00
FILE "04 - Suffocation.wav" WAVE
  TRACK 04 AUDIO
    TITLE "Suffocation (Tabu Zombie)"
    ISRC GBMEF0600016
    INDEX 01 00:00:00
FILE "05 - Stinger.wav" WAVE
  TRACK 05 AUDIO
    TITLE "Stinger (Shacho, Midoryn)"
    ISRC GBMEF0600017
    INDEX 01 00:00:00
FILE "06 - Waltz for Goddess.wav" WAVE
  TRACK 06 AUDIO
    TITLE "Waltz for Goddess (Shacho)"
    ISRC GBMEF0600018
    INDEX 01 00:00:00
FILE "07 - Avalanche.wav" WAVE
  TRACK 07 AUDIO
    TITLE "Avalanche (Shacho)"
    ISRC GBMEF0600019
    INDEX 01 00:00:00
FILE "08 - A Wheel within a Wheel.wav" WAVE
  TRACK 08 AUDIO
    TITLE "A Wheel within a Wheel (Robert Watson)"
    ISRC GBMEF0600020
    INDEX 01 00:00:00
FILE "09 - J.D.F.wav" WAVE
  TRACK 09 AUDIO
    TITLE "J.D.F (Josei)"
    ISRC GBMEF0600021
    INDEX 01 00:00:00
FILE "10 - Low Life.wav" WAVE
  TRACK 10 AUDIO
    TITLE "Low Life (Josei)"
    ISRC GBMEF0600022
    INDEX 01 00:00:00
FILE "11 - No Matter.wav" WAVE
  TRACK 11 AUDIO
    TITLE "No Matter"
    ISRC GBMEF0600023
    INDEX 01 00:00:00
FILE "12 - Mo Better Blues.wav" WAVE
  TRACK 12 AUDIO
    TITLE "Mo Better Blues (Bill Lee)"
    ISRC GBMEF0600024
    INDEX 01 00:00:00
FILE "13 - Wasted Time.wav" WAVE
  TRACK 13 AUDIO
    TITLE "Wasted Time (Tabu Zombie)"
    ISRC GBMEF0600025
    INDEX 01 00:00:00
FILE "14 - Master of Pimp.wav" WAVE
  TRACK 14 AUDIO
    TITLE "Master of Pimp (Shacho, Tabu Zombie)"
    ISRC GBMEF0600026
    INDEX 01 00:00:00
FILE "15 - Hirameku Yaiba.wav" WAVE
  TRACK 15 AUDIO
    TITLE "Hirameku Yaiba (Shacho, Tabu Zombie)"
    ISRC GBMEF0600027
    INDEX 01 00:00:00
  TRACK 16 AUDIO
    TITLE "Fuller Love (Robert Watson)"
    ISRC GBMEF0600028
    INDEX 00 01:12:01
FILE "16 - Fuller Love.wav" WAVE
    INDEX 01 00:00:00
FILE "17 - Wives & Lovers.wav" WAVE
  TRACK 17 AUDIO
    TITLE "Wives & Lovers (Burt Bacharach & Hal David)"
    ISRC GBMEF0600029
    INDEX 01 00:00:00
 
2006 - Pimp of the Year
Год выпуска диска: 2006
Продолжительность: 56:22
Трэклист:
1. Memai
2. Summer Goddess
3. Worldwide
4. Crush!
5. Sabotage
6. Scoop out
7. Sahara
8. Ha Hen (Splinter)
9. The Black Widow Blues
10. The White Widow
11. I-rony
12. Last Long
13. Satsuriku New Wave
 
log
Exact Audio Copy V0.99 prebeta 4 from 23. January 2008
EAC extraction logfile from 21. December 2008, 22:36
Soil & "Pimp" Sessions / Pimp of The Year
Used drive  : TEAC    DVD+-RW DVW28SLC   Adapter: 0  ID: 1
Read mode               : Secure
Utilize accurate stream : Yes
Defeat audio cache      : Yes
Make use of C2 pointers : No
Read offset correction                      : 48
Overread into Lead-In and Lead-Out          : No
Fill up missing offset samples with silence : Yes
Delete leading and trailing silent blocks   : No
Null samples used in CRC calculations       : Yes
Used interface                              : Native Win32 interface for Win NT & 2000
Gap handling                                : Appended to previous track
Used output format              : User Defined Encoder
Selected bitrate                : 224 kBit/s
Quality                         : High
Add ID3 tag                     : No
Command line compressor         : C:\Program Files\Exact Audio Copy\Flac\flac.exe
Additional command line options : -V -8 -T "artist=%a" -T "title=%t" -T "album=%g" -T "date=%y" -T "tracknumber=%n" -T "genre=%m" %s
TOC of the extracted CD
     Track |   Start  |  Length  | Start sector | End sector
    ---------------------------------------------------------
        1  |  0:00.00 |  4:09.45 |         0    |    18719
        2  |  4:09.45 |  4:43.53 |     18720    |    39997
        3  |  8:53.23 |  5:00.74 |     39998    |    62571
        4  | 13:54.22 |  3:40.04 |     62572    |    79075
        5  | 17:34.26 |  4:36.09 |     79076    |    99784
        6  | 22:10.35 |  3:58.58 |     99785    |   117692
        7  | 26:09.18 |  7:03.32 |    117693    |   149449
        8  | 33:12.50 |  6:18.10 |    149450    |   177809
        9  | 39:30.60 |  4:08.62 |    177810    |   196471
       10  | 43:39.47 |  1:34.49 |    196472    |   203570
       11  | 45:14.21 |  4:20.59 |    203571    |   223129
       12  | 49:35.05 |  4:22.33 |    223130    |   242812
       13  | 53:57.38 |  2:44.24 |    242813    |   255136
Track  1
     Filename C:\Users\Gibson\Music\EAC\Soil and Pimp Sessions 2 FLAC\Pimp of the Year\01 - Memai - Soil & 'Pimp' Sessions - Pimp of The Year.wav
     Pre-gap length  0:00:02.00
     Peak level 100.0 %
     Track quality 100.0 %
     Test CRC C7F89F66
     Copy CRC C7F89F66
     Track not present in AccurateRip database
     Copy OK
Track  2
     Filename C:\Users\Gibson\Music\EAC\Soil and Pimp Sessions 2 FLAC\Pimp of the Year\02 - Summer Goddess - Soil & 'Pimp' Sessions - Pimp of The Year.wav
     Peak level 100.0 %
     Track quality 100.0 %
     Test CRC EEA6287E
     Copy CRC EEA6287E
     Track not present in AccurateRip database
     Copy OK
Track  3
     Filename C:\Users\Gibson\Music\EAC\Soil and Pimp Sessions 2 FLAC\Pimp of the Year\03 - Worldwide - Soil & 'Pimp' Sessions - Pimp of The Year.wav
     Pre-gap length  0:00:01.62
     Peak level 100.0 %
     Track quality 100.0 %
     Test CRC D822F117
     Copy CRC D822F117
     Track not present in AccurateRip database
     Copy OK
Track  4
     Filename C:\Users\Gibson\Music\EAC\Soil and Pimp Sessions 2 FLAC\Pimp of the Year\04 - Crush! - Soil & 'Pimp' Sessions - Pimp of The Year.wav
     Peak level 100.0 %
     Track quality 100.0 %
     Test CRC C9B6C748
     Copy CRC C9B6C748
     Track not present in AccurateRip database
     Copy OK
Track  5
     Filename C:\Users\Gibson\Music\EAC\Soil and Pimp Sessions 2 FLAC\Pimp of the Year\05 - Sabotage - Soil & 'Pimp' Sessions - Pimp of The Year.wav
     Peak level 100.0 %
     Track quality 100.0 %
     Test CRC ABF8FB33
     Copy CRC ABF8FB33
     Track not present in AccurateRip database
     Copy OK
Track  6
     Filename C:\Users\Gibson\Music\EAC\Soil and Pimp Sessions 2 FLAC\Pimp of the Year\06 - Scoop out - Soil & 'Pimp' Sessions - Pimp of The Year.wav
     Peak level 100.0 %
     Track quality 100.0 %
     Test CRC 34C129D4
     Copy CRC 34C129D4
     Track not present in AccurateRip database
     Copy OK
Track  7
     Filename C:\Users\Gibson\Music\EAC\Soil and Pimp Sessions 2 FLAC\Pimp of the Year\07 - Sahara - Soil & 'Pimp' Sessions - Pimp of The Year.wav
     Pre-gap length  0:00:01.40
     Peak level 100.0 %
     Track quality 100.0 %
     Test CRC ED977091
     Copy CRC ED977091
     Track not present in AccurateRip database
     Copy OK
Track  8
     Filename C:\Users\Gibson\Music\EAC\Soil and Pimp Sessions 2 FLAC\Pimp of the Year\08 - Ha Hen (Splinter) - Soil & 'Pimp' Sessions - Pimp of The Year.wav
     Pre-gap length  0:00:07.39
     Peak level 100.0 %
     Track quality 100.0 %
     Test CRC BB9749F5
     Copy CRC BB9749F5
     Track not present in AccurateRip database
     Copy OK
Track  9
     Filename C:\Users\Gibson\Music\EAC\Soil and Pimp Sessions 2 FLAC\Pimp of the Year\09 - The Black Widow Blues - Soil & 'Pimp' Sessions - Pimp of The Year.wav
     Pre-gap length  0:00:02.16
     Peak level 100.0 %
     Track quality 100.0 %
     Test CRC 7C9D965F
     Copy CRC 7C9D965F
     Track not present in AccurateRip database
     Copy OK
Track 10
     Filename C:\Users\Gibson\Music\EAC\Soil and Pimp Sessions 2 FLAC\Pimp of the Year\10 - The White Widow - Soil & 'Pimp' Sessions - Pimp of The Year.wav
     Peak level 100.0 %
     Track quality 99.8 %
     Test CRC 8F936363
     Copy CRC 8F936363
     Track not present in AccurateRip database
     Copy OK
Track 11
     Filename C:\Users\Gibson\Music\EAC\Soil and Pimp Sessions 2 FLAC\Pimp of the Year\11 - I-rony - Soil & 'Pimp' Sessions - Pimp of The Year.wav
     Pre-gap length  0:00:02.45
     Peak level 100.0 %
     Track quality 100.0 %
     Test CRC AFD15DC8
     Copy CRC AFD15DC8
     Track not present in AccurateRip database
     Copy OK
Track 12
     Filename C:\Users\Gibson\Music\EAC\Soil and Pimp Sessions 2 FLAC\Pimp of the Year\12 - Last Long - Soil & 'Pimp' Sessions - Pimp of The Year.wav
     Pre-gap length  0:00:01.70
     Peak level 100.0 %
     Track quality 100.0 %
     Test CRC D6515CBC
     Copy CRC D6515CBC
     Track not present in AccurateRip database
     Copy OK
Track 13
     Filename C:\Users\Gibson\Music\EAC\Soil and Pimp Sessions 2 FLAC\Pimp of the Year\13 - Satsuriku New Wave - Soil & 'Pimp' Sessions - Pimp of The Year.wav
     Pre-gap length  0:00:01.73
     Peak level 100.0 %
     Track quality 100.0 %
     Test CRC 3A55F996
     Copy CRC 3A55F996
     Track not present in AccurateRip database
     Copy OK
None of the tracks are present in the AccurateRip database
No errors occurred
End of status report
 
cue
REM GENRE Jazz
REM DATE 2006
REM DISCID B50D490D
REM COMMENT "ExactAudioCopy v0.99pb4"
PERFORMER "Soil & 'Pimp' Sessions"
TITLE "Pimp of The Year"
FILE "01 - Memai - Soil & 'Pimp' Sessions - Pimp of The Year.wav" WAVE
  TRACK 01 AUDIO
    TITLE "Memai"
    PERFORMER "Soil & 'Pimp' Sessions"
    INDEX 01 00:00:00
FILE "02 - Summer Goddess - Soil & 'Pimp' Sessions - Pimp of The Year.wav" WAVE
  TRACK 02 AUDIO
    TITLE "Summer Goddess"
    PERFORMER "Soil & 'Pimp' Sessions"
    INDEX 01 00:00:00
  TRACK 03 AUDIO
    TITLE "Worldwide"
    PERFORMER "Soil & 'Pimp' Sessions"
    INDEX 00 04:41:66
FILE "03 - Worldwide - Soil & 'Pimp' Sessions - Pimp of The Year.wav" WAVE
    INDEX 01 00:00:00
FILE "04 - Crush! - Soil & 'Pimp' Sessions - Pimp of The Year.wav" WAVE
  TRACK 04 AUDIO
    TITLE "Crush!"
    PERFORMER "Soil & 'Pimp' Sessions"
    INDEX 01 00:00:00
FILE "05 - Sabotage - Soil & 'Pimp' Sessions - Pimp of The Year.wav" WAVE
  TRACK 05 AUDIO
    TITLE "Sabotage"
    PERFORMER "Soil & 'Pimp' Sessions"
    INDEX 01 00:00:00
FILE "06 - Scoop out - Soil & 'Pimp' Sessions - Pimp of The Year.wav" WAVE
  TRACK 06 AUDIO
    TITLE "Scoop out"
    PERFORMER "Soil & 'Pimp' Sessions"
    INDEX 01 00:00:00
  TRACK 07 AUDIO
    TITLE "Sahara"
    PERFORMER "Soil & 'Pimp' Sessions"
    INDEX 00 03:57:18
FILE "07 - Sahara - Soil & 'Pimp' Sessions - Pimp of The Year.wav" WAVE
    INDEX 01 00:00:00
  TRACK 08 AUDIO
    TITLE "Ha Hen (Splinter)"
    PERFORMER "Soil & 'Pimp' Sessions"
    INDEX 00 06:55:68
FILE "08 - Ha Hen (Splinter) - Soil & 'Pimp' Sessions - Pimp of The Year.wav" WAVE
    INDEX 01 00:00:00
  TRACK 09 AUDIO
    TITLE "The Black Widow Blues"
    PERFORMER "Soil & 'Pimp' Sessions"
    INDEX 00 06:15:69
FILE "09 - The Black Widow Blues - Soil & 'Pimp' Sessions - Pimp of The Year.wav" WAVE
    INDEX 01 00:00:00
FILE "10 - The White Widow - Soil & 'Pimp' Sessions - Pimp of The Year.wav" WAVE
  TRACK 10 AUDIO
    TITLE "The White Widow"
    PERFORMER "Soil & 'Pimp' Sessions"
    INDEX 01 00:00:00
  TRACK 11 AUDIO
    TITLE "I-rony"
    PERFORMER "Soil & 'Pimp' Sessions"
    INDEX 00 01:32:04
FILE "11 - I-rony - Soil & 'Pimp' Sessions - Pimp of The Year.wav" WAVE
    INDEX 01 00:00:00
  TRACK 12 AUDIO
    TITLE "Last Long"
    PERFORMER "Soil & 'Pimp' Sessions"
    INDEX 00 04:18:64
FILE "12 - Last Long - Soil & 'Pimp' Sessions - Pimp of The Year.wav" WAVE
    INDEX 01 00:00:00
  TRACK 13 AUDIO
    TITLE "Satsuriku New Wave"
    PERFORMER "Soil & 'Pimp' Sessions"
    INDEX 00 04:20:35
FILE "13 - Satsuriku New Wave - Soil & 'Pimp' Sessions - Pimp of The Year.wav" WAVE
    INDEX 01 00:00:00
 
2006 - Pimp of the Year [Victor Entertainment VICL-61891] {Bonus Track}
Год выпуска диска: 2006
Продолжительность: 01:01:12
Трэклист:
1. Memai
2. Summer Goddess
3. Worldwide
4. Crush!
5. Sabotage
6. Scoop out
7. Sahara
8. Ha Hen (Splinter)
9. The Black Widow Blues
10. The White Widow
11. I-rony
12. Last Long
13. Satsuriku New Wave
14. Need For Speed
 
log
X Lossless Decoder version 20100518 (120.3)
XLD extraction logfile from 2010-06-26 19:27:33 +0200
SOIL & "PIMP" Sessions / Pimp of the Year
Used drive : MATSHITA DVD-R   UJ-857E (revision ZF1E)
Use cdparanoia mode     : YES (CDParanoia III 10.2 engine)
Disable audio cache     : OK for the drive with cache less than 2750KB
Make use of C2 pointers : NO
Read offset correction  : 102
Max retry count         : 100
TOC of the extracted CD
     Track |   Start  |  Length  | Start sector | End sector
    ---------------------------------------------------------
        1  | 00:00:00 | 04:09:45 |         0    |    18719
        2  | 04:09:45 | 04:43:53 |     18720    |    39997
        3  | 08:53:23 | 05:00:74 |     39998    |    62571
        4  | 13:54:22 | 03:40:04 |     62572    |    79075
        5  | 17:34:26 | 04:36:09 |     79076    |    99784
        6  | 22:10:35 | 03:58:58 |     99785    |   117692
        7  | 26:09:18 | 07:03:32 |    117693    |   149449
        8  | 33:12:50 | 06:18:10 |    149450    |   177809
        9  | 39:30:60 | 04:08:62 |    177810    |   196471
       10  | 43:39:47 | 01:34:49 |    196472    |   203570
       11  | 45:14:21 | 04:20:59 |    203571    |   223129
       12  | 49:35:05 | 04:22:33 |    223130    |   242812
       13  | 53:57:38 | 02:51:60 |    242813    |   255697
       14  | 56:49:23 | 03:14:29 |    255698    |   270276
All Tracks
    Album gain             : -10.14 dB
    Peak                   : 1.000000
Track 01
    Filename : /Users/-/Desktop/SOIL & "PIMP" Sessions - [2006] - Pimp of the Year/01 - MEMAI.flac
    Pre-gap length : 00:02:00
    Track gain             : -11.43 dB
    Peak                   : 1.000000
    CRC32 hash (test run)  : C7F89F66
    CRC32 hash             : C7F89F66
    CRC32 hash (skip zero) : C00A8741
    AccurateRip signature  : C4EE08C1
        ->Accurately ripped! (confidence 1)
    Statistics
        Read error                           : 0
        Skipped (treated as error)           : 0
        Edge jitter error (maybe fixed)      : 0
        Atom jitter error (maybe fixed)      : 0
        Drift error (maybe fixed)            : 0
        Dropped bytes error (maybe fixed)    : 0
        Duplicated bytes error (maybe fixed) : 0
        Inconsistency in error sectors       : 0
Track 02
    Filename : /Users/-/Desktop/SOIL & "PIMP" Sessions - [2006] - Pimp of the Year/02 - SUMMER GODDESS.flac
    Track gain             : -10.31 dB
    Peak                   : 1.000000
    CRC32 hash (test run)  : EEA6287E
    CRC32 hash             : EEA6287E
    CRC32 hash (skip zero) : E072CBA7
    AccurateRip signature  : A9983BBA
        ->Accurately ripped! (confidence 1)
    Statistics
        Read error                           : 0
        Skipped (treated as error)           : 0
        Edge jitter error (maybe fixed)      : 0
        Atom jitter error (maybe fixed)      : 0
        Drift error (maybe fixed)            : 0
        Dropped bytes error (maybe fixed)    : 0
        Duplicated bytes error (maybe fixed) : 0
        Inconsistency in error sectors       : 0
Track 03
    Filename : /Users/-/Desktop/SOIL & "PIMP" Sessions - [2006] - Pimp of the Year/03 - WORLDWIDE.flac
    Pre-gap length : 00:01:62
    Track gain             : -9.15 dB
    Peak                   : 1.000000
    CRC32 hash (test run)  : D822F117
    CRC32 hash             : D822F117
    CRC32 hash (skip zero) : 7D1C888F
    AccurateRip signature  : 0E11C15E
        ->Accurately ripped! (confidence 1)
    Statistics
        Read error                           : 0
        Skipped (treated as error)           : 0
        Edge jitter error (maybe fixed)      : 0
        Atom jitter error (maybe fixed)      : 0
        Drift error (maybe fixed)            : 0
        Dropped bytes error (maybe fixed)    : 0
        Duplicated bytes error (maybe fixed) : 0
        Inconsistency in error sectors       : 0
Track 04
    Filename : /Users/-/Desktop/SOIL & "PIMP" Sessions - [2006] - Pimp of the Year/04 - Crush!.flac
    Track gain             : -10.47 dB
    Peak                   : 1.000000
    CRC32 hash (test run)  : C9B6C748
    CRC32 hash             : C9B6C748
    CRC32 hash (skip zero) : A09A15C3
    AccurateRip signature  : CBF944B1
        ->Accurately ripped! (confidence 1)
    Statistics
        Read error                           : 0
        Skipped (treated as error)           : 0
        Edge jitter error (maybe fixed)      : 0
        Atom jitter error (maybe fixed)      : 0
        Drift error (maybe fixed)            : 0
        Dropped bytes error (maybe fixed)    : 0
        Duplicated bytes error (maybe fixed) : 0
        Inconsistency in error sectors       : 0
Track 05
    Filename : /Users/-/Desktop/SOIL & "PIMP" Sessions - [2006] - Pimp of the Year/05 - SABOTAGE.flac
    Track gain             : -8.85 dB
    Peak                   : 1.000000
    CRC32 hash (test run)  : ABF8FB33
    CRC32 hash             : ABF8FB33
    CRC32 hash (skip zero) : 206B13AB
    AccurateRip signature  : 9C2905B0
        ->Accurately ripped! (confidence 1)
    Statistics
        Read error                           : 0
        Skipped (treated as error)           : 0
        Edge jitter error (maybe fixed)      : 0
        Atom jitter error (maybe fixed)      : 0
        Drift error (maybe fixed)            : 0
        Dropped bytes error (maybe fixed)    : 0
        Duplicated bytes error (maybe fixed) : 0
        Inconsistency in error sectors       : 0
Track 06
    Filename : /Users/-/Desktop/SOIL & "PIMP" Sessions - [2006] - Pimp of the Year/06 - SCOOP OUT.flac
    Track gain             : -10.48 dB
    Peak                   : 1.000000
    CRC32 hash (test run)  : 34C129D4
    CRC32 hash             : 34C129D4
    CRC32 hash (skip zero) : D59A2B56
    AccurateRip signature  : EB238246
        ->Accurately ripped! (confidence 1)
    Statistics
        Read error                           : 0
        Skipped (treated as error)           : 0
        Edge jitter error (maybe fixed)      : 0
        Atom jitter error (maybe fixed)      : 0
        Drift error (maybe fixed)            : 0
        Dropped bytes error (maybe fixed)    : 0
        Duplicated bytes error (maybe fixed) : 0
        Inconsistency in error sectors       : 0
Track 07
    Filename : /Users/-/Desktop/SOIL & "PIMP" Sessions - [2006] - Pimp of the Year/07 - SAHARA.flac
    Pre-gap length : 00:01:40
    Track gain             : -9.08 dB
    Peak                   : 1.000000
    CRC32 hash (test run)  : 
Состав:
Shacho {agitator, spirit}
Tabu Zombie {trumpet}
Motoharu {sax}
Josei {piano}
Akita Goldman {bass}
Midoryn {drums}
22:03
1247
Нет комментариев. Ваш будет первым!