Вы используете незарегистрированную версию компонента "Вкладки"!

Поиск

2004 Harold Mabern Trio - Fantasy (2017) {Venus} [DSD64 ISO]

2004 Harold Mabern Trio - Fantasy (2017) {Venus} [DSD64 ISO]
Стили:
Дата записи диска:
27 июня 2004
Место записи:
Avatar Studios, New York City, NY, USA
Дата издания диска:
21 октября 2004
Дата переиздания диска:
20 сентября 2017
Издатель (лейбл):
Номер по каталогу:
VHGD-243
Носитель:
SACD
Формат:
DSD
Тип рипа:
image
Контейнер:
ISO (*.iso)
Количество каналов:
2.0
Разрядность/ЧД:
64 (2,8 MHz/1 Bit)
Битрейт аудио:
lossless
Время звучания:
01:00:21
Наличие сканов:
только обложка
Лог проверки качества
foobar2000 1.6.4 / Dynamic Range Meter 1.1.1
log date: 2021-07-06 16:08:40

--------------------------------------------------------------------------------
Analyzed: HAROLD MABERN TRIO / Fantasy
--------------------------------------------------------------------------------

DR         Peak         RMS     Duration Track
--------------------------------------------------------------------------------
DR6       -4.54 dB   -12.36 dB      5:13 01-Almost Like Being In Love
DR7       -4.65 dB   -14.05 dB      7:10 02-Harlem Dawn
DR6       -4.74 dB   -12.20 dB      5:25 03-Lollipops And Roses
DR7       -4.81 dB   -13.03 dB      6:38 04-Sesame Street Theme
DR6       -4.53 dB   -12.95 dB      7:03 05-Fantasy
DR7       -4.76 dB   -12.61 dB      5:03 06-The Sidewinder
DR9       -5.09 dB   -17.31 dB      6:12 07-It Only Hurts When I Smile
DR6       -4.51 dB   -13.16 dB      8:50 08-Let's Face The Music And Dance
DR6       -4.79 dB   -12.03 dB      4:16 09-Jackson Park El Train
DR7       -5.08 dB   -13.15 dB      4:31 10-You Belong To Me
--------------------------------------------------------------------------------

Number of tracks:  10
Official DR value: DR7

Samplerate:        2822400 Hz / PCM Samplerate: 88200 Hz
Channels:          2
Bits per sample:   1
Bitrate:           5645 kbps
Codec:             DSD64
================================================================================
Any questions - support@pro-jazz.com. Есть вопросы - support@pro-jazz.com
09:23
79
Нет комментариев. Ваш будет первым!