Поиск

2005 Dan Nimmer Trio - Tea For Two (2018) {Venus} [DSD64 ISO]

2005 Dan Nimmer Trio - Tea For Two (2018) {Venus} [DSD64 ISO]
Дата записи диска:
22 августа 2005
Место записи:
The Studio, New York City, NY, USA
Издатель (лейбл):
Номер по каталогу:
VHGD-313
Носитель:
SACD
Формат:
DSD
Тип рипа:
image
Контейнер:
FLAC (*.flac)
Количество каналов:
2.0
Разрядность/ЧД:
64 (2,8 MHz/1 Bit)
Битрейт аудио:
lossless
Время звучания:
00:56:08
Наличие сканов:
только обложка

Треклист:

01. Lu's Bounce  06:36
02. Do You Mind?  06:13
03. Embraceable You  06:19
04. Little Neeley  04:51
05. Corcovado  06:41
06. Tea for Two  06:18
07. No Problem  05:13
08. Ease It  05:08
09. When Lights Are Low  05:17
10. Blues for Venus  03:32

Состав:
  •     Bass – David Wong
  •     Drums – Pete Van Nostrand
  •     Engineer – Katherine Miller
  •     Piano – Dan Nimmer
  •     Producer – Tetsuo Hara, Todd Barkan
Лог проверки качества
foobar2000 1.6.8 / Dynamic Range Meter 1.1.1
log date: 2022-01-06 20:53:00
--------------------------------------------------------------------------------
Analyzed: DAN NIMMER TRIO / Tea For Two
--------------------------------------------------------------------------------
DR         Peak         RMS     Duration Track
--------------------------------------------------------------------------------
DR7       -5.12 dB   -14.25 dB      6:36 01-Lu's Bounce
DR7       -4.99 dB   -14.80 dB      6:13 02-Do You Mine?
DR12      -5.42 dB   -21.78 dB      6:19 03-Embraceable You
DR8       -5.19 dB   -15.85 dB      4:51 04-Little Neeley
DR7       -5.23 dB   -15.16 dB      6:41 05-Corcovado
DR8       -5.23 dB   -16.62 dB      6:18 06-Tea For Two
DR7       -5.15 dB   -13.00 dB      5:13 07-No Problem
DR8       -5.15 dB   -15.98 dB      5:08 08-Ease It
DR8       -5.28 dB   -16.53 dB      5:17 09-When Lights Are Low
DR7       -5.20 dB   -14.03 dB      3:32 10-Blues For Venus
--------------------------------------------------------------------------------
Number of tracks:  10
Official DR value: DR8
Samplerate:        2822400 Hz / PCM Samplerate: 88200 Hz
Channels:          2
Bits per sample:   1
Bitrate:           5645 kbps
Codec:             DSD64
================================================================================
По всем вопросам пишите личное сообщение пользователю M0p94ok.
11:25
125
Нет комментариев. Ваш будет первым!