Вы используете незарегистрированную версию компонента "Вкладки"!

Поиск

2005 John Di Martino's Romantic Jazz Trio - So In Love {Venus} [DSD64 ISO]

2005 John Di Martino's Romantic Jazz Trio - So In Love {Venus} [DSD64 ISO]
Стили:
Дата записи диска:
9 сентября и 10 сентября 2004
Место записи:
Avatar Studios, New York City, NY, USA
Дата издания диска:
28 марта 2005
Издатель (лейбл):
Номер по каталогу:
VHGD-112
Носитель:
SACD
Формат:
DSD
Тип рипа:
image
Контейнер:
ISO (*.iso)
Количество каналов:
2.0
Разрядность/ЧД:
64 (2,8 MHz/1 Bit)
Битрейт аудио:
lossless
Время звучания:
01:05:37
Наличие сканов:
да
Лог проверки качества
foobar2000 1.6.4 / Dynamic Range Meter 1.1.1
log date: 2021-04-15 21:15:53

--------------------------------------------------------------------------------
Analyzed: JOHN DI MARTINO'S ROMANTIC JAZZ TRIO / So In Love
--------------------------------------------------------------------------------

DR         Peak         RMS     Duration Track
--------------------------------------------------------------------------------
DR7       -4.33 dB   -13.43 dB      6:10 01-Softly As In A Morning Sunrise
DR7       -4.34 dB   -12.88 dB      3:40 02-Michelle
DR8       -4.36 dB   -15.00 dB      2:31 03-Vesti La Giubba
DR7       -4.40 dB   -13.85 dB      6:14 04-Lamento Borincano
DR6       -4.28 dB   -11.70 dB      5:13 05-So In Love
DR9       -4.51 dB   -16.48 dB      7:23 06-Love Is Stronger Than Us
DR8       -4.38 dB   -15.44 dB      6:34 07-When I Look In Your Eyes
DR8       -4.36 dB   -14.31 dB      6:55 08-Summertime
DR9       -4.49 dB   -16.48 dB      4:07 09-Moment To Moment
DR7       -4.40 dB   -13.49 dB      5:54 10-Hush A Bye
DR9       -4.41 dB   -17.55 dB      6:00 11-What Are You Doing The Rest Of Your Life
DR8       -4.40 dB   -15.14 dB      4:57 12-Murmullo
--------------------------------------------------------------------------------

Number of tracks:  12
Official DR value: DR8

Samplerate:        2822400 Hz / PCM Samplerate: 176400 Hz
Channels:          2
Bits per sample:   1
Bitrate:           5645 kbps
Codec:             DSD64
================================================================================
Any questions - support@pro-jazz.com. Есть вопросы - support@pro-jazz.com
00:15
87
Нет комментариев. Ваш будет первым!