Поиск

2005 Walter Beasley - For Her {Heads Up} [CD]

2005 Walter Beasley - For Her {Heads Up} [CD]
Стили:
Издатель (лейбл):
Треклист:

01. She's All That
02. For Her
03. Coolness
04. Good Morning
05. What Ya' Feelin'?
06. Don't Say Goodnight
07. Remember When
08. Grace
09. Let's Ride
10. Things Change
11. Playtime

Состав:
  • Martin Walters     Bass, Composer
  • Webster Roach     Bass
  • Chuck Loeb     Composer, Guitar
  • Phil Davis     Composer, Keyboards
  • Walter Beasley     Composer, Saxophone, Vocals
  • Tyronne Chase     Guitar
  • James Lloyd     Keyboards
  • Ra-Deon Kirkland     Vocals
Лог создания рипа
Exact Audio Copy V0.99 prebeta 4 from 23. January 2008
Отчёт EAC об извлечении, выполненном 8. января 2009, 14:01
Walter Beasley / For Her
Дисковод: _NEC    DVD_RW ND-3550A   Adapter: 1  ID: 0
Режим чтения                 : Достоверность
Использование точного потока : Да
Отключение кэша аудио        : Да
Использование указателей C2  : Нет
Коррекция смещения при чтении                     : 48
Способность читать области Lead-in и Lead-out     : Нет
Заполнение пропущенных сэмплов тишиной            : Да
Удаление блоков с тишиной в начале и конце        : Нет
При вычислениях CRC использовались нулевые сэмплы : Да
Интерфейс                                         : Встроенный Win32-интерфейс для Win NT/2000
Выходной формат : Внутренние WAV-операции
Формат сэмплов  : 44.100 Гц; 16 бит; стерео
TOC извлечённого CD
     Трек |   Старт  | Длительность | Начальный сектор | Конечный сектор
    ---------------------------------------------------------------------
       1  |  0:00.00 |    3:49.37   |           0      |      17211
       2  |  3:49.37 |    4:15.05   |       17212      |      36341
       3  |  8:04.42 |    4:07.53   |       36342      |      54919
       4  | 12:12.20 |    4:18.05   |       54920      |      74274
       5  | 16:30.25 |    3:59.67   |       74275      |      92266
       6  | 20:30.17 |    4:23.33   |       92267      |     112024
       7  | 24:53.50 |    4:24.65   |      112025      |     131889
       8  | 29:18.40 |    4:17.07   |      131890      |     151171
       9  | 33:35.47 |    4:17.43   |      151172      |     170489
      10  | 37:53.15 |    3:26.42   |      170490      |     185981
      11  | 41:19.57 |    4:06.15   |      185982      |     204446
Характеристики диапазона извлечения и сообщения об ошибках
Выбранный диапазон
     Имя файла C:\Torrents\Walter Beasley\For Her\Walter Beasley - For Her.wav
     Пиковый уровень 100.0 %
     Качество диапазона 100.0 %
     CRC копии 9ACDE62D
     Копирование... OK
Ошибок не произошло
AccurateRip: сводка
Трек  1  точность не определена (достоверность 3)  [E3B561F4], AccurateRip вернул [CB514F3A]
Трек  2  точность не определена (достоверность 3)  [1450BF4D], AccurateRip вернул [75A1A596]
Трек  3  точность не определена (достоверность 3)  [F750245F], AccurateRip вернул [B50D2ABB]
Трек  4  точность не определена (достоверность 3)  [C39CE0B3], AccurateRip вернул [68DABD62]
Трек  5  точность не определена (достоверность 3)  [7D54DF93], AccurateRip вернул [7E694929]
Трек  6  точность не определена (достоверность 3)  [C2663CC6], AccurateRip вернул [DABCA965]
Трек  7  точность не определена (достоверность 3)  [7D665CE6], AccurateRip вернул [D751253E]
Трек  8  точность не определена (достоверность 3)  [280D9946], AccurateRip вернул [87EB5DF7]
Трек  9  точность не определена (достоверность 3)  [0030D626], AccurateRip вернул [A975109C]
Трек 10  точность не определена (достоверность 3)  [9F28ECCC], AccurateRip вернул [7A21DFEA]
Трек 11  точность не определена (достоверность 3)  [5B1E5410], AccurateRip вернул [64FF6F47]
Ни один трек не прошёл проверки на точность
В вашей базе может быть иной вариант штамповки диска
Конец отчёта
12:16
869
Нет комментариев. Ваш будет первым!