Поиск

2006 Marian McPartland With Shirley Horn - Marian McPartland's Piano Jazz {Concord} [CD]

2006 Marian McPartland With Shirley Horn - Marian McPartland's Piano Jazz {Concord} [CD]
Треклист:
Жанр: Vocal Jazz
Год выпуска диска: 2006
Аудио кодек: FLAC
Тип рипа: tracks+.cue
Битрейт аудио: lossless
Продолжительность: 0:50:30
Трэклист:
01. Conversation
02. Love Is Here To Stay
03. Conversation
04. I Could Have Told You
05. Conversation
06. Billie's Bounce
07. Conversation.
08. Blood Count
09. Conversation
10. Love You Madly
11. Conversation
12. Violets For Your Furs
13. Conversation
14. Cherry
15. Conversation
16. There's No You
17. Conversation
18. Guess I'll Hang My Tears Out to Dry
19. Conversation
20. Shirley's Blues
 
Log EAC
Exact Audio Copy V0.99 prebeta 4 from 23. January 2008
EAC extraction logfile from 7. February 2009, 14:26
Marian McPartland With Shirley Horn / Marian McPartland Piano Jazz Radio Boadcast
Used drive : HL-DT-STDVD-ROM GDR8087N Adapter: 1 ID: 0
Read mode : Secure
Utilize accurate stream : Yes
Defeat audio cache : Yes
Make use of C2 pointers : No
Read offset correction : 6
Overread into Lead-In and Lead-Out : No
Fill up missing offset samples with silence : Yes
Delete leading and trailing silent blocks : No
Null samples used in CRC calculations : Yes
Used interface : Native Win32 interface for Win NT & 2000
Gap handling : Appended to previous track
Used output format : Internal WAV Routines
Sample format : 44.100 Hz; 16 Bit; Stereo
TOC of the extracted CD
Track | Start | Length | Start sector | End sector
---------------------------------------------------------
1 | 0:00.00 | 0:53.74 | 0 | 4048
2 | 0:53.74 | 2:17.02 | 4049 | 14325
3 | 3:11.01 | 1:45.27 | 14326 | 22227
4 | 4:56.28 | 2:58.24 | 22228 | 35601
5 | 7:54.52 | 3:44.19 | 35602 | 52420
6 | 11:38.71 | 4:13.20 | 52421 | 71415
7 | 15:52.16 | 0:49.38 | 71416 | 75128
8 | 16:41.54 | 2:30.20 | 75129 | 86398
9 | 19:11.74 | 3:13.53 | 86399 | 100926
10 | 22:25.52 | 4:29.05 | 100927 | 121106
11 | 26:54.57 | 0:17.25 | 121107 | 122406
12 | 27:12.07 | 2:52.11 | 122407 | 135317
13 | 30:04.18 | 3:25.72 | 135318 | 150764
14 | 33:30.15 | 4:53.48 | 150765 | 172787
15 | 38:23.63 | 2:28.54 | 172788 | 183941
16 | 40:52.42 | 3:07.21 | 183942 | 197987
17 | 43:59.63 | 1:10.13 | 197988 | 203250
18 | 45:10.01 | 4:21.02 | 203251 | 222827
19 | 49:31.03 | 0:59.63 | 222828 | 227315
20 | 50:30.66 | 5:05.32 | 227316 | 250222
Track 1
Filename F:\My Documents\Uploads\01. Conversation.wav
Pre-gap length 0:00:02.00
Peak level 98.9 %
Track quality 100.0 %
Copy CRC C94BFF28
Copy OK
Track 2
Filename F:\My Documents\Uploads\02. Love Is Here To Stay.wav
Peak level 98.5 %
Track quality 100.0 %
Copy CRC F818DF41
Copy OK
Track 3
Filename F:\My Documents\Uploads\03. Conversation.wav
Peak level 99.4 %
Track quality 100.0 %
Copy CRC B23B1BF6
Copy OK
Track 4
Filename F:\My Documents\Uploads\04. I Could Have Told You.wav
Peak level 99.0 %
Track quality 99.9 %
Copy CRC 9DC5BDC4
Copy OK
Track 5
Filename F:\My Documents\Uploads\05. Conversation.wav
Peak level 99.3 %
Track quality 100.0 %
Copy CRC 449C5B1D
Copy OK
Track 6
Filename F:\My Documents\Uploads\06. Billie's Bounce.wav
Peak level 98.7 %
Track quality 100.0 %
Copy CRC 03D21195
Copy OK
Track 7
Filename F:\My Documents\Uploads\07. Conversation.wav
Peak level 99.1 %
Track quality 100.0 %
Copy CRC 76D12C4B
Copy OK
Track 8
Filename F:\My Documents\Uploads\08. Blood Count.wav
Peak level 83.7 %
Track quality 100.0 %
Copy CRC 1FDFE856
Copy OK
Track 9
Filename F:\My Documents\Uploads\09. Conversation.wav
Peak level 98.9 %
Track quality 100.0 %
Copy CRC D79B064A
Copy OK
Track 10
Filename F:\My Documents\Uploads\10. Love You Madly.wav
Peak level 98.5 %
Track quality 100.0 %
Copy CRC 65BB782C
Copy OK
Track 11
Filename F:\My Documents\Uploads\11. Conversation.wav
Peak level 98.5 %
Track quality 100.0 %
Copy CRC F38C65D6
Copy OK
Track 12
Filename F:\My Documents\Uploads\12. Violets For Your Furs.wav
Peak level 85.2 %
Track quality 100.0 %
Copy CRC 57FFEF9B
Copy OK
Track 13
Filename F:\My Documents\Uploads\13. Conversation.wav
Peak level 98.9 %
Track quality 100.0 %
Copy CRC 083BF903
Copy OK
Track 14
Filename F:\My Documents\Uploads\14. Cherry.wav
Peak level 98.7 %
Track quality 100.0 %
Copy CRC DEC7B18B
Copy OK
Track 15
Filename F:\My Documents\Uploads\15. Conversation.wav
Peak level 98.6 %
Track quality 100.0 %
Copy CRC E273D77D
Copy OK
Track 16
Filename F:\My Documents\Uploads\16. There's No You.wav
Peak level 98.9 %
Track quality 99.9 %
Copy CRC C2B05205
Copy OK
Track 17
Filename F:\My Documents\Uploads\17. Conversation.wav
Peak level 98.6 %
Track quality 100.0 %
Copy CRC 68876679
Copy OK
Track 18
Filename F:\My Documents\Uploads\18. Guess I'll Hang My Tears Out to Dry.wav
Peak level 98.4 %
Track quality 100.0 %
Copy CRC D6C2E9B1
Copy OK
Track 19
Filename F:\My Documents\Uploads\19. Conversation.wav
Peak level 98.8 %
Track quality 100.0 %
Copy CRC F7FC7092
Copy OK
Track 20
Filename F:\My Documents\Uploads\20. Shirley's Blues.wav
Peak level 98.9 %
Track quality 100.0 %
Copy CRC B2412A83
Copy OK
No errors occurred
End of status report
 
 
CUE
REM GENRE Jazz
REM DATE 2006
REM DISCID F20D0814
REM COMMENT "ExactAudioCopy v0.99pb4"
PERFORMER "Marian McPartland With Shirley Horn"
TITLE "Marian McPartland Piano Jazz Radio Boadcast"
FILE "01. Conversation.wav" WAVE
  TRACK 01 AUDIO
    TITLE "Conversation"
    PERFORMER "Marian McPartland With Shirley Horn"
    FLAGS DCP
    INDEX 01 00:00:00
FILE "02. Love Is Here To Stay.wav" WAVE
  TRACK 02 AUDIO
    TITLE "Love Is Here To Stay"
    PERFORMER "Marian McPartland With Shirley Horn"
    FLAGS DCP
    INDEX 01 00:00:00
FILE "03. Conversation.wav" WAVE
  TRACK 03 AUDIO
    TITLE "Conversation"
    PERFORMER "Marian McPartland With Shirley Horn"
    FLAGS DCP
    INDEX 01 00:00:00
FILE "04. I Could Have Told You.wav" WAVE
  TRACK 04 AUDIO
    TITLE "I Could Have Told You"
    PERFORMER "Marian McPartland With Shirley Horn"
    FLAGS DCP
    INDEX 01 00:00:00
FILE "05. Conversation.wav" WAVE
  TRACK 05 AUDIO
    TITLE "Conversation"
    PERFORMER "Marian McPartland With Shirley Horn"
    FLAGS DCP
    INDEX 01 00:00:00
FILE "06. Billie's Bounce.wav" WAVE
  TRACK 06 AUDIO
    TITLE "Billie's Bounce"
    PERFORMER "Marian McPartland With Shirley Horn"
    FLAGS DCP
    INDEX 01 00:00:00
FILE "07. Conversation.wav" WAVE
  TRACK 07 AUDIO
    TITLE "Conversation"
    PERFORMER "Marian McPartland With Shirley Horn"
    FLAGS DCP
    INDEX 01 00:00:00
FILE "08. Blood Count.wav" WAVE
  TRACK 08 AUDIO
    TITLE "Blood Count"
    PERFORMER "Marian McPartland With Shirley Horn"
    FLAGS DCP
    INDEX 01 00:00:00
FILE "09. Conversation.wav" WAVE
  TRACK 09 AUDIO
    TITLE "Conversation"
    PERFORMER "Marian McPartland With Shirley Horn"
    FLAGS DCP
    INDEX 01 00:00:00
FILE "10. Love You Madly.wav" WAVE
  TRACK 10 AUDIO
    TITLE "Love You Madly"
    PERFORMER "Marian McPartland With Shirley Horn"
    FLAGS DCP
    INDEX 01 00:00:00
FILE "11. Conversation.wav" WAVE
  TRACK 11 AUDIO
    TITLE "Conversation"
    PERFORMER "Marian McPartland With Shirley Horn"
    FLAGS DCP
    INDEX 01 00:00:00
FILE "12. Violets For Your Furs.wav" WAVE
  TRACK 12 AUDIO
    TITLE "Violets For Your Furs"
    PERFORMER "Marian McPartland With Shirley Horn"
    FLAGS DCP
    INDEX 01 00:00:00
FILE "13. Conversation.wav" WAVE
  TRACK 13 AUDIO
    TITLE "Conversation"
    PERFORMER "Marian McPartland With Shirley Horn"
    FLAGS DCP
    INDEX 01 00:00:00
FILE "14. Cherry.wav" WAVE
  TRACK 14 AUDIO
    TITLE "Cherry"
    PERFORMER "Marian McPartland With Shirley Horn"
    FLAGS DCP
    INDEX 01 00:00:00
FILE "15. Conversation.wav" WAVE
  TRACK 15 AUDIO
    TITLE "Conversation"
    PERFORMER "Marian McPartland With Shirley Horn"
    FLAGS DCP
    INDEX 01 00:00:00
FILE "16. There's No You.wav" WAVE
  TRACK 16 AUDIO
    TITLE "There's No You"
    PERFORMER "Marian McPartland With Shirley Horn"
    FLAGS DCP
    INDEX 01 00:00:00
FILE "17. Conversation.wav" WAVE
  TRACK 17 AUDIO
    TITLE "Conversation"
    PERFORMER "Marian McPartland With Shirley Horn"
    FLAGS DCP
    INDEX 01 00:00:00
FILE "18. Guess I'll Hang My Tears Out to Dry.wav" WAVE
  TRACK 18 AUDIO
    TITLE "Guess I'll Hang My Tears Out to Dry"
    PERFORMER "Marian McPartland With Shirley Horn"
    FLAGS DCP
    INDEX 01 00:00:00
FILE "19. Conversation.wav" WAVE
  TRACK 19 AUDIO
    TITLE "Conversation"
    PERFORMER "Marian McPartland With Shirley Horn"
    FLAGS DCP
    INDEX 01 00:00:00
FILE "20. Shirley's Blues.wav" WAVE
  TRACK 20 AUDIO
    TITLE "Shirley's Blues"
    PERFORMER "Marian McPartland With Shirley Horn"
    FLAGS DCP
    INDEX 01 00:00:00
Any questions - support@pro-jazz.com
To become a power user - read FAQ.
05:51
387
Нет комментариев. Ваш будет первым!