Поиск

2007 VA - Master Music - Female Audiophile II {Master Music} [DST64 ISO]

2007 VA - Master Music - Female Audiophile II {Master Music} [DST64 ISO]
Стили:
Номер по каталогу:
MASA 50782
Носитель:
SACD
Формат:
DST
Тип рипа:
image
Контейнер:
ISO (*.iso)
Количество каналов:
2.0
Разрядность/ЧД:
64 (2,8 MHz/1 Bit)
Битрейт аудио:
lossless
Время звучания:
01:10:33
Наличие сканов:
только обложка
Треклист:

01. The Good Life ~ Elisabeth Kontomanou
02. Close To You ~ Simone
03. Desperado ~ Malene Mortensen
04. In My Life ~ Veronica Mortensen
05. Can’t Buy Me Love ~ Katrine Madsen
06. Don’t Weep ~ Josefine Cronholm
07. You Must Believe In Spring ~ Maria Winther
08. Love For Sale ~ Siri’s Svale Band
09. The Mirrors Of My Soul ~ Rim Banna
10. I Don’t Want To Talk About It ~ Inger Maria Gundersen
11. What Joy ~ Jenny Evans
12. Dulce Marioneta ~ Katia Cardenal
13. Parden,Gooddess Of The Night ~ Elisabeth Karster
14. Tenderly ~ Niki King
15. Wave On Rock ~ Kari Bremnes

Лог проверки качества
foobar2000 1.6.8 / Dynamic Range Meter 1.1.1
log date: 2022-01-03 20:08:01
--------------------------------------------------------------------------------
Analyzed: Various Artists / Female Audiophile - II
--------------------------------------------------------------------------------
DR         Peak         RMS     Duration Track
--------------------------------------------------------------------------------
DR7       -6.86 dB   -18.16 dB      5:43 01-The Good Life
DR7       -7.96 dB   -18.22 dB      5:03 02-Close To you
DR12      -5.64 dB   -20.60 dB      4:15 03-Desperado
DR11      -6.32 dB   -20.18 dB      3:06 04-In My Life
DR9       -7.91 dB   -19.41 dB      4:32 05-Can't Buy Me Love
DR10      -7.06 dB   -20.97 dB      5:03 06-Don't Weep
DR10      -6.43 dB   -19.05 dB      4:37 07-You Must Believe In Spring
DR9       -7.52 dB   -18.55 dB      6:27 08-Love For Sale
DR10      -6.02 dB   -19.69 dB      6:16 09-The Mirrors Of My Soul
DR10      -8.32 dB   -21.36 dB      4:19 10-I Don't Want To Talk About It
DR10      -7.03 dB   -19.62 dB      3:03 11-What Joy
DR11      -6.55 dB   -20.39 dB      3:32 12-Dulce Marioneta
DR10      -6.35 dB   -21.33 dB      6:29 13-Pardon, Goddess Of The Night
DR10      -7.86 dB   -21.77 dB      4:05 14-Tenderly
DR12      -6.02 dB   -19.94 dB      4:02 15-Wave On Rock
--------------------------------------------------------------------------------
Number of tracks:  15
Official DR value: DR10
Samplerate:        2822400 Hz / PCM Samplerate: 88200 Hz
Channels:          2
Bits per sample:   1
Bitrate:           5645 kbps
Codec:             DST64
================================================================================
По всем вопросам пишите личное сообщение пользователю M0p94ok.
21:18
108
Нет комментариев. Ваш будет первым!