Поиск

2007 Walter Beasley - Ready For Love {Heads Up HUCD 3116} [CD]

2007 Walter Beasley - Ready For Love {Heads Up HUCD 3116} [CD]
Стили:
Издатель (лейбл):
Номер по каталогу:
HUCD 3116

01. Free - 4:42
02. La Niña - 4:53
03. Be Thankful For What You've Got - 3:35
04. Ready For Love - 4:33
05. Rhea's Song - 4:34
06. She Moves Me - 3:29
07. Miss You - 4:10
08. Land Of The Sun - 3:42
09. Sugar Puddin' - 4:23
10. Why Not You - 4:22
11. Willa Mae's Place - 4:54

Состав:
  • Alto Saxophone – Walter Beasley (1 to 8, 10, 11)
  • Soprano Saxophone – Walter Beasley (9)
  • Lead Vocals, Backing Vocals, Keyboards – Walter Beasley (3)
  • Saxophone [Background] – Eddie Baccus Jr. (4)
  • Acoustic Guitar – Rick Watford (2)
  • Bass – Joel Powell (1, 2), Winston Maccow (6, 9, 11), Bass – Webster Roach (3), J. T. Brown (7)
  • Vocals – Lil' John Roberts, Tiffany Davis (1)
  • Drums – Anthony Steele (6, 9, 11), Milton Smith (7)
  • Guitar – Jeff Lockhart (3, 9, 11), Rick Watford (1, 5), Wayne Jones (6), Tony Cothran (7)
  • Keyboards – Orville Wright (6, 9, 11), Phil Davis (2) (1, 2, 5), Dow Brain (9), Quim Quer (8), Randy Choice (7)
  • Keyboards, Piano – James Lloyd (4, 10)
  • Percussion – Ricardo Monzon (6, 9, 11), Mike Friend (7)
  • Producer – James Lloyd (4, 10), Phil Davis (2) (1, 2, 5), Walter Beasley (3, 6, 9, 11)
  • Producer, Drum Programming, Drums – Lil' John Roberts (1, 2, 5)
Лог создания рипа
Exact Audio Copy V1.3 from 2. September 2016
EAC extraction logfile from 2. February 2017, 19:37
Walter Beasley / Ready For Love
Used drive : HL-DT-STDVDRAM GSA-T50N Adapter: 1 ID: 0
Read mode : Secure
Utilize accurate stream : Yes
Defeat audio cache : Yes
Make use of C2 pointers : No
Read offset correction : 667
Overread into Lead-In and Lead-Out : No
Fill up missing offset samples with silence : Yes
Delete leading and trailing silent blocks : No
Null samples used in CRC calculations : Yes
Used interface : Native Win32 interface for Win NT & 2000
Gap handling : Appended to previous track
Used output format : User Defined Encoder
Selected bitrate : 1024 kBit/s
Quality : High
Add ID3 tag : No
Command line compressor : C:\Program Files\Exact Audio Copy\Flac\flac.exe
Additional command line options : -V -8 -T "Genre=%genre%" -T "Artist=%artist%" -T "Title=%title%" -T "Album=%albumtitle%" -T "Date=%year%" -T "Tracknumber=%tracknr%" %source% -o %dest%
TOC of the extracted CD
Track | Start | Length | Start sector | End sector
---------------------------------------------------------
1 | 0:00.00 | 4:42.38 | 0 | 21187
2 | 4:42.38 | 4:55.13 | 21188 | 43325
3 | 9:37.51 | 3:36.24 | 43326 | 59549
4 | 13:14.00 | 4:33.69 | 59550 | 80093
5 | 17:47.69 | 4:35.11 | 80094 | 100729
6 | 22:23.05 | 3:31.13 | 100730 | 116567
7 | 25:54.18 | 4:11.07 | 116568 | 135399
8 | 30:05.25 | 3:42.25 | 135400 | 152074
9 | 33:47.50 | 4:24.19 | 152075 | 171893
10 | 38:11.69 | 4:23.74 | 171894 | 191692
11 | 42:35.68 | 4:54.18 | 191693 | 213760
Track 1
Filename C:\Musicgate's rips\Walter Beasley - Ready For Love - 2007 (Heads Up HUCD 3116) [FLAC]\01 - Free.wav
Pre-gap length 0:00:02.00
Peak level 99.9 %
Extraction speed 2.2 X
Track quality 99.9 %
Test CRC DB195164
Copy CRC DB195164
Accurately ripped (confidence 4) [C4A79CCA] (AR v2)
Copy OK
Track 2
Filename C:\Musicgate's rips\Walter Beasley - Ready For Love - 2007 (Heads Up HUCD 3116) [FLAC]\02 - La Nina.wav
Peak level 99.9 %
Extraction speed 2.7 X
Track quality 100.0 %
Test CRC 09621D91
Copy CRC 09621D91
Accurately ripped (confidence 4) [106F3DE4] (AR v2)
Copy OK
Track 3
Filename C:\Musicgate's rips\Walter Beasley - Ready For Love - 2007 (Heads Up HUCD 3116) [FLAC]\03 - Be Thankful For What You've Got.wav
Pre-gap length 0:00:01.14
Peak level 99.9 %
Extraction speed 2.8 X
Track quality 100.0 %
Test CRC D79FFA46
Copy CRC D79FFA46
Accurately ripped (confidence 4) [E3A782EB] (AR v2)
Copy OK
Track 4
Filename C:\Musicgate's rips\Walter Beasley - Ready For Love - 2007 (Heads Up HUCD 3116) [FLAC]\04 - Ready For Love.wav
Pre-gap length 0:00:00.42
Peak level 99.9 %
Extraction speed 3.1 X
Track quality 100.0 %
Test CRC 330296FC
Copy CRC 330296FC
Accurately ripped (confidence 4) [312331B8] (AR v2)
Copy OK
Track 5
Filename C:\Musicgate's rips\Walter Beasley - Ready For Love - 2007 (Heads Up HUCD 3116) [FLAC]\05 - Rhea's Song.wav
Pre-gap length 0:00:00.29
Peak level 99.9 %
Extraction speed 3.3 X
Track quality 100.0 %
Test CRC 8B5A2FE2
Copy CRC 8B5A2FE2
Accurately ripped (confidence 4) [5B477B64] (AR v2)
Copy OK
Track 6
Filename C:\Musicgate's rips\Walter Beasley - Ready For Love - 2007 (Heads Up HUCD 3116) [FLAC]\06 - She Moves Me.wav
Peak level 99.9 %
Extraction speed 2.9 X
Track quality 99.9 %
Test CRC 2C82F276
Copy CRC 2C82F276
Accurately ripped (confidence 4) [7F1F8CC7] (AR v2)
Copy OK
Track 7
Filename C:\Musicgate's rips\Walter Beasley - Ready For Love - 2007 (Heads Up HUCD 3116) [FLAC]\07 - Miss You.wav
Peak level 99.9 %
Extraction speed 3.7 X
Track quality 100.0 %
Test CRC 2A7314CD
Copy CRC 2A7314CD
Accurately ripped (confidence 4) [6F7C5F50] (AR v2)
Copy OK
Track 8
Filename C:\Musicgate's rips\Walter Beasley - Ready For Love - 2007 (Heads Up HUCD 3116) [FLAC]\08 - Land Of The Sun.wav
Peak level 99.9 %
Extraction speed 3.6 X
Track quality 100.0 %
Test CRC 106A93A6
Copy CRC 106A93A6
Accurately ripped (confidence 4) [F4556DAB] (AR v2)
Copy OK
Track 9
Filename C:\Musicgate's rips\Walter Beasley - Ready For Love - 2007 (Heads Up HUCD 3116) [FLAC]\09 - Sugar Puddin'.wav
Peak level 99.9 %
Extraction speed 3.5 X
Track quality 99.9 %
Test CRC EAB0DC09
Copy CRC EAB0DC09
Accurately ripped (confidence 4) [E9C6B9E0] (AR v2)
Copy OK
Track 10
Filename C:\Musicgate's rips\Walter Beasley - Ready For Love - 2007 (Heads Up HUCD 3116) [FLAC]\10 - Why Not You.wav
Peak level 99.9 %
Extraction speed 4.1 X
Track quality 100.0 %
Test CRC 75B75CA0
Copy CRC 75B75CA0
Accurately ripped (confidence 4) [5706E2A0] (AR v2)
Copy OK
Track 11
Filename C:\Musicgate's rips\Walter Beasley - Ready For Love - 2007 (Heads Up HUCD 3116) [FLAC]\11 - Willa Mae's Place.wav
Peak level 99.9 %
Extraction speed 4.3 X
Track quality 100.0 %
Test CRC 61F5D15B
Copy CRC 61F5D15B
Accurately ripped (confidence 4) [12E5AD55] (AR v2)
Copy OK
All tracks accurately ripped
No errors occurred
End of status report
==== Log checksum 21EF9F2D4BB170F6E579262DEE31D50799CED8702418811FA3FE0E9E6CC26482 ====
Содержание индексной карты (.CUE)
REM GENRE Jazz
REM DATE 2007
REM DISCID A90B220B
REM COMMENT "ExactAudioCopy v1.3"
PERFORMER "Walter Beasley"
TITLE "Ready For Love"
REM COMPOSER ""
FILE "01 - Free.wav" WAVE
TRACK 01 AUDIO
TITLE "Free"
PERFORMER "Walter Beasley"
ISRC USHU20711601
FLAGS DCP
INDEX 01 00:00:00
FILE "02 - La Nina.wav" WAVE
TRACK 02 AUDIO
TITLE "La Nina"
PERFORMER "Walter Beasley"
ISRC USHU20711602
FLAGS DCP
INDEX 01 00:00:00
TRACK 03 AUDIO
TITLE "Be Thankful For What You've Got"
PERFORMER "Walter Beasley"
ISRC USHU20711603
FLAGS DCP
INDEX 00 04:53:74
FILE "03 - Be Thankful For What You've Got.wav" WAVE
INDEX 01 00:00:00
TRACK 04 AUDIO
TITLE "Ready For Love"
PERFORMER "Walter Beasley"
ISRC USHU20711604
FLAGS DCP
INDEX 00 03:35:57
FILE "04 - Ready For Love.wav" WAVE
INDEX 01 00:00:00
TRACK 05 AUDIO
TITLE "Rhea's Song"
PERFORMER "Walter Beasley"
ISRC USHU20711605
FLAGS DCP
INDEX 00 04:33:40
FILE "05 - Rhea's Song.wav" WAVE
INDEX 01 00:00:00
FILE "06 - She Moves Me.wav" WAVE
TRACK 06 AUDIO
TITLE "She Moves Me"
PERFORMER "Walter Beasley"
ISRC USHU20711606
FLAGS DCP
INDEX 01 00:00:00
FILE "07 - Miss You.wav" WAVE
TRACK 07 AUDIO
TITLE "Miss You"
PERFORMER "Walter Beasley"
ISRC USHU20711607
FLAGS DCP
INDEX 01 00:00:00
FILE "08 - Land Of The Sun.wav" WAVE
TRACK 08 AUDIO
TITLE "Land Of The Sun"
PERFORMER "Walter Beasley"
ISRC USHU20711608
FLAGS DCP
INDEX 01 00:00:00
FILE "09 - Sugar Puddin'.wav" WAVE
TRACK 09 AUDIO
TITLE "Sugar Puddin'"
PERFORMER "Walter Beasley"
ISRC USHU20711609
FLAGS DCP
INDEX 01 00:00:00
FILE "10 - Why Not You.wav" WAVE
TRACK 10 AUDIO
TITLE "Why Not You"
PERFORMER "Walter Beasley"
ISRC USHU20711610
FLAGS DCP
INDEX 01 00:00:00
FILE "11 - Willa Mae's Place.wav" WAVE
TRACK 11 AUDIO
TITLE "Willa Mae's Place"
PERFORMER "Walter Beasley"
ISRC USHU20711611
FLAGS DCP
INDEX 01 00:00:00
Скачивание доступно после регистрации!!
Приватный:
Нет (DHT включён)
Размер:
368.35 Мб (386,240,614 байт) » файлов: 24
Участники:
0 раздают, 0 качают (0 участников всего)
Внешние участники:
2 раздают, 1 качают (3 участников всего) [ Обновить ]
03:03
768
Нет комментариев. Ваш будет первым!