Поиск

2008 Art Tatum - Piano Starts Here: Live at the Shrine {Sony Classical 88697-22218-2} [CD]

2008 Art Tatum - Piano Starts Here: Live at the Shrine {Sony Classical 88697-22218-2} [CD]

Треклист:

Zenph Studios Re-Performance Stereo Surround Version
01. Tea for Two (Caesar-Youmans) - 3:14
02. St. Louis Blues (Handy) - 2:42
03. Tiger Rag (LaRocca) - 2:22
04. Sophisticated Lady (Ellington) - 3:20
05. Humoresque (Dvorak) - 3:48
06. Tatum Pole Boogie (Tatum) - 2:33
07. Someone to Watch over Me (Gershwin-Gershwin) - 3:35
08. How High the Moon (Hamilton-Lewis) - 2:30
09. Yesterdays (Harbach-Kern) - 3:28
10. Willow Weep for Me (Ronell) - 3:17
11. The Kerry Dance (Feibel-Molloy) - 1:06
12. Gershwin Medley (Gershwin-Gershwin) - 3:59
13. I Know That You Know (Harbach-O'Dea-Youmans) - 2:46
Zenph Studios Re-Performance Binaural Stereo Version (The Ultimate Headphone Experience)
14. Tea for Two (Caesar-Youmans) - 3:14
15. St. Louis Blues (Handy) - 2:42
16. Tiger Rag (LaRocca) - 2:21
17. Sophisticated Lady (Ellington) - 3:20
18. Humoresque (Dvorak) - 3:48
19. Tatum Pole Boogie (Tatum) - 2:33
20. Someone to Watch over Me (Gershwin-Gershwin) - 3:35
21. How High the Moon (Hamilton-Lewis) - 2:30
22. Yesterdays (Harbach-Kern) - 3:28
23. Willow Weep for Me (Ronell) - 3:18
24. The Kerry Dance (Feibel-Molloy) - 1:06
25. Gershwin Medley (Gershwin-Gershwin) - 3:59
26. I Know That You Know (Harbach-O'Dea-Youmans) - 2:43

Состав:

Recorded live at The Shrine Auditorium, Los Angeles, CA on September 23, 2007.
#1-4,14-17 were recorded without an audience, #5-13,18-26 were recorded with an audience.
Original Recording: #1-4 recorded on March 21, 1933. #5-13 recorded live, at the "Just Jazz" concert at The Shrine Auditorium, Los Angeles, CA in the spring of 1949.

Жанр: Swing
Носитель: CD
Страна-производитель диска (релиза): США
Год издания: 2008
Издатель (лейбл): Sony Classical
Номер по каталогу: 88697-22218-2
Аудиокодек: FLAC (*.flac)
Тип рипа: tracks+.cue
Битрейт аудио: lossless
Продолжительность: 01:17:17
Источник: snowbanks
Наличие сканов в содержимом раздачи: сетевые

Лог создания рипа
X Lossless Decoder version 20161007 (149.3)

XLD extraction logfile from 2017-05-06 12:28:54 -0700

Art Tatum / Piano Starts Here: Live at the Shrine (Zenph Re-Performance)

Used drive : TSSTcorp BDDVDW SE-506BB (revision TS00)
Media type : Pressed CD

Ripper mode             : XLD Secure Ripper
Disable audio cache     : OK for the drive with a cache less than 1375KiB
Make use of C2 pointers : NO
Read offset correction  : 6
Max retry count         : 100
Gap status              : Analyzed, Appended (except HTOA)

TOC of the extracted CD
     Track |   Start  |  Length  | Start sector | End sector
    ---------------------------------------------------------
        1  | 00:00:00 | 03:13:61 |         0    |    14535
        2  | 03:13:61 | 02:41:46 |     14536    |    26656
        3  | 05:55:32 | 02:22:20 |     26657    |    37326
        4  | 08:17:52 | 03:19:48 |     37327    |    52299
        5  | 11:37:25 | 03:48:02 |     52300    |    69401
        6  | 15:25:27 | 02:32:45 |     69402    |    80846
        7  | 17:57:72 | 03:35:02 |     80847    |    96973
        8  | 21:32:74 | 02:30:00 |     96974    |   108223
        9  | 24:02:74 | 03:28:34 |    108224    |   123857
       10  | 27:31:33 | 03:17:25 |    123858    |   138657
       11  | 30:48:58 | 01:06:37 |    138658    |   143644
       12  | 31:55:20 | 03:58:49 |    143645    |   161543
       13  | 35:53:69 | 02:45:64 |    161544    |   173982
       14  | 38:39:58 | 03:13:71 |    173983    |   188528
       15  | 41:53:54 | 02:41:61 |    188529    |   200664
       16  | 44:35:40 | 02:20:63 |    200665    |   211227
       17  | 46:56:28 | 03:20:09 |    211228    |   226236
       18  | 50:16:37 | 03:47:59 |    226237    |   243320
       19  | 54:04:21 | 02:32:51 |    243321    |   254771
       20  | 56:36:72 | 03:35:01 |    254772    |   270897
       21  | 60:11:73 | 02:29:71 |    270898    |   282143
       22  | 62:41:69 | 03:28:37 |    282144    |   297780
       23  | 66:10:31 | 03:17:40 |    297781    |   312595
       24  | 69:27:71 | 01:06:17 |    312596    |   317562
       25  | 70:34:13 | 03:58:74 |    317563    |   335486
       26  | 74:33:12 | 02:42:70 |    335487    |   347706

List of alternate offset correction values
        #  | Absolute | Relative | Confidence
    ------------------------------------------
        1  |     -6   |    -12   |     15

AccurateRip Summary (DiscID: 0047f953-053ea9c0-a7121c1a)
    Track 01 : OK (v1+v2, confidence 82/97)
    Track 02 : OK (v1+v2, confidence 83/98)
    Track 03 : OK (v1+v2, confidence 83/98)
    Track 04 : OK (v1+v2, confidence 83/98)
    Track 05 : OK (v1+v2, confidence 83/98)
    Track 06 : OK (v1+v2, confidence 83/98)
    Track 07 : OK (v1+v2, confidence 83/98)
    Track 08 : OK (v1+v2, confidence 83/98)
    Track 09 : OK (v1+v2, confidence 83/98)
    Track 10 : OK (v1+v2, confidence 82/97)
    Track 11 : OK (v1+v2, confidence 81/96)
    Track 12 : OK (v1+v2, confidence 83/98)
    Track 13 : OK (v1+v2, confidence 83/98)
    Track 14 : OK (v1+v2, confidence 80/92)
    Track 15 : OK (v1+v2, confidence 80/92)
    Track 16 : OK (v1+v2, confidence 80/92)
    Track 17 : OK (v1+v2, confidence 80/92)
    Track 18 : OK (v1+v2, confidence 80/92)
    Track 19 : OK (v1+v2, confidence 80/92)
    Track 20 : OK (v1+v2, confidence 80/92)
    Track 21 : OK (v1+v2, confidence 80/92)
    Track 22 : OK (v1+v2, confidence 79/91)
    Track 23 : OK (v1+v2, confidence 79/91)
    Track 24 : OK (v1+v2, confidence 79/91)
    Track 25 : OK (v1+v2, confidence 79/91)
    Track 26 : OK (v1+v2, confidence 79/91)
        ->All tracks accurately ripped.

All Tracks
    Album gain               : 1.88 dB
    Peak                     : 0.999969
    Statistics
        Read error                           : 0
        Jitter error (maybe fixed)           : 0
        Retry sector count                   : 0
        Damaged sector count                 : 0

Track 01
    Filename : /Volumes/Hollywood and Vine/Rips/Art Tatum - Piano Starts Hereпјљ Live at the Shrine (Zenph Re-Performance) (2008) [FLAC]/01 Tea for Two (Stereo Surround version).flac
    Pre-gap length : 00:02:00

    Track gain               : 2.18 dB
    Peak                     : 0.599487
    CRC32 hash (test run)    : 062EBB52
    CRC32 hash               : 062EBB52
    CRC32 hash (skip zero)   : DCD819AD
    AccurateRip v1 signature : 03A3E9BC
    AccurateRip v2 signature : EB0AE455
        ->Accurately ripped (v1+v2, confidence 30+52/97)
    Statistics
        Read error                           : 0
        Jitter error (maybe fixed)           : 0
        Retry sector count                   : 0
        Damaged sector count                 : 0

Track 02
    Filename : /Volumes/Hollywood and Vine/Rips/Art Tatum - Piano Starts Hereпјљ Live at the Shrine (Zenph Re-Performance) (2008) [FLAC]/02 St. Louis Blues (Stereo Surround version).flac

    Track gain               : 3.36 dB
    Peak                     : 0.572510
    CRC32 hash (test run)    : D696FA14
    CRC32 hash               : D696FA14
    CRC32 hash (skip zero)   : 2B66ADEC
    AccurateRip v1 signature : C01705DC
    AccurateRip v2 signature : 738CD679
        ->Accurately ripped (v1+v2, confidence 31+52/98)
    Statistics
        Read error                           : 0
        Jitter error (maybe fixed)           : 0
        Retry sector count                   : 0
        Damaged sector count                 : 0

Track 03
    Filename : /Volumes/Hollywood and Vine/Rips/Art Tatum - Piano Starts Hereпјљ Live at the Shrine (Zenph Re-Performance) (2008) [FLAC]/03 Tiger Rag (Stereo Surround version).flac

    Track gain               : 1.59 dB
    Peak                     : 0.750519
    CRC32 hash (test run)    : 649A99D9
    CRC32 hash               : 649A99D9
    CRC32 hash (skip zero)   : 5E765473
    AccurateRip v1 signature : 1335BBA9
    AccurateRip v2 signature : BB5AB5E4
        ->Accurately ripped (v1+v2, confidence 31+52/98)
    Statistics
        Read error                           : 0
        Jitter error (maybe fixed)           : 0
        Retry sector count                   : 0
        Damaged sector count                 : 0

Track 04
    Filename : /Volumes/Hollywood and Vine/Rips/Art Tatum - Piano Starts Hereпјљ Live at the Shrine (Zenph Re-Performance) (2008) [FLAC]/04 Sophisticated Lady (Stereo Surround version).flac

    Track gain               : 2.35 dB
    Peak                     : 0.532684
    CRC32 hash (test run)    : F170B476
    CRC32 hash               : F170B476
    CRC32 hash (skip zero)   : 8BC03DB2
    AccurateRip v1 signature : 834A5BD1
    AccurateRip v2 signature : D2AB2A40
        ->Accurately ripped (v1+v2, confidence 31+52/98)
    Statistics
        Read error                           : 0
        Jitter error (maybe fixed)           : 0
        Retry sector count                   : 0
        Damaged sector count                 : 0

Track 05
    Filename : /Volumes/Hollywood and Vine/Rips/Art Tatum - Piano Starts Hereпјљ Live at the Shrine (Zenph Re-Performance) (2008) [FLAC]/05 Humoresque (Stereo Surround version).flac

    Track gain               : 2.78 dB
    Peak                     : 0.535583
    CRC32 hash (test run)    : 2093DFF5
    CRC32 hash               : 2093DFF5
    CRC32 hash (skip zero)   : BF2DB014
    AccurateRip v1 signature : C7889DA9
    AccurateRip v2 signature : 8E12AF3B
        ->Accurately ripped (v1+v2, confidence 31+52/98)
    Statistics
        Read error                           : 0
        Jitter error (maybe fixed)           : 0
        Retry sector count                   : 0
        Damaged sector count                 : 0

Track 06
    Filename : /Volumes/Hollywood and Vine/Rips/Art Tatum - Piano Starts Hereпјљ Live at the Shrine (Zenph Re-Performance) (2008) [FLAC]/06 Tatum Pole Boogie (Stereo Surround version).flac

    Track gain               : 0.17 dB
    Peak                     : 0.816284
    CRC32 hash (test run)    : 28DE6239
    CRC32 hash               : 28DE6239
    CRC32 hash (skip zero)   : 11AC5B31
    AccurateRip v1 signature : 2B1A78A6
    AccurateRip v2 signature : 0598D845
        ->Accurately ripped (v1+v2, confidence 31+52/98)
    Statistics
        Read error                           : 0
        Jitter error (maybe fixed)           : 0
        Retry sector count                   : 0
        Damaged sector count                 : 0

Track 07
    Filename : /Volumes/Hollywood and Vine/Rips/Art Tatum - Piano Starts Hereпјљ Live at the Shrine (Zenph Re-Performance) (2008) [FLAC]/07 Someone to Watch Over Me (Stereo Surround version).flac

    Track gain               : 2.04 dB
    Peak                     : 0.621246
    CRC32 hash (test run)    : D48837ED
    CRC32 hash               : D48837ED
    CRC32 hash (skip zero)   : A46343C0
    AccurateRip v1 signature : 0288D0CF
    AccurateRip v2 signature : 8DD338F4
        ->Accurately ripped (v1+v2, confidence 31+52/98)
    Statistics
        Read error                           : 0
        Jitter error (maybe fixed)           : 0
        Retry sector count                   : 0
        Damaged sector count                 : 0

Track 08
    Filename : /Volumes/Hollywood and Vine/Rips/Art Tatum - Piano Starts Hereпјљ Live at the Shrine (Zenph Re-Performance) (2008) [FLAC]/08 How High the Moon (Stereo Surround version).flac

    Track gain               : 0.12 dB
    Peak                     : 0.799194
    CRC32 hash (test run)    : 64776F1C
    CRC32 hash               : 64776F1C
    CRC32 hash (skip zero)   : 6C1D5D2F
    AccurateRip v1 signature : 951BD614
    AccurateRip v2 signature : 5E5EAF45
        ->Accurately ripped (v1+v2, confidence 31+52/98)
    Statistics
        Read error                           : 0
        Jitter error (maybe fixed)           : 0
        Retry sector count                   : 0
        Damaged sector count                 : 0

Track 09
    Filename : /Volumes/Hollywood and Vine/Rips/Art Tatum - Piano Starts Hereпјљ Live at the Shrine (Zenph Re-Performance) (2008) [FLAC]/09 Yesterdays (Stereo Surround version).flac

    Track gain               : 2.17 dB
    Peak                     : 0.846680
    CRC32 hash (test run)    : ED08100E
    CRC32 hash               : ED08100E
    CRC32 hash (skip zero)   : AC5C6956
    AccurateRip v1 signature : AAA101BC
    AccurateRip v2 signature : D366F5EB
        ->Accurately ripped (v1+v2, confidence 31+52/98)
    Statistics
        Read error                           : 0
        Jitter error (maybe fixed)           : 0
        Retry sector count                   : 0
        Damaged sector count                 : 0

Track 10
    Filename : /Volumes/Hollywood and Vine/Rips/Art Tatum - Piano Starts Hereпјљ Live at the Shrine (Zenph Re-Performance) (2008) [FLAC]/10 Willow Weep for Me (Stereo Surround version).flac

    Track gain               : 2.64 dB
    Peak                     : 0.633789
    CRC32 hash (test run)    : 1C125969
    CRC32 hash               : 1C125969
    CRC32 hash (skip zero)   : E1DD44A0
    AccurateRip v1 signature : AF9EF6E1
    AccurateRip v2 signature : 54C7837B
        ->Accurately ripped (v1+v2, confidence 30+52/97)
    Statistics
        Read error                           : 0
        Jitter error (maybe fixed)           : 0
        Retry sector count                   : 0
        Damaged sector count                 : 0

Track 11
    Filename : /Volumes/Hollywood and Vine/Rips/Art Tatum - Piano Starts Hereпјљ Live at the Shrine (Zenph Re-Performance) (2008) [FLAC]/11 The Kerry Dance (Stereo Surround version).flac

    Track gain               : 2.85 dB
    Peak                     : 0.551910
    CRC32 hash (test run)    : 89D7CEA5
    CRC32 hash               : 89D7CEA5
    CRC32 hash (skip zero)   : D7F0B39C
    AccurateRip v1 signature : 87A34985
    AccurateRip v2 signature : 3E784D47
        ->Accurately ripped (v1+v2, confidence 30+51/96)
    Statistics
        Read error                           : 0
        Jitter error (maybe fixed)           : 0
        Retry sector count                   : 0
        Damaged sector count                 : 0

Track 12
    Filename : /Volumes/Hollywood and Vine/Rips/Art Tatum - Piano Starts Hereпјљ Live at the Shrine (Zenph Re-Performance) (2008) [FLAC]/12 Gershwin Medley (Stereo Surround version).flac

    Track gain               : 1.46 dB
    Peak                     : 0.734222
    CRC32 hash (test run)    : 7892CF63
    CRC32 hash               : 7892CF63
    CRC32 hash (skip zero)   : D054999A
    AccurateRip v1 signature : 959751A0
    AccurateRip v2 signature : 11B24AF2
        ->Accurately ripped (v1+v2, confidence 31+52/98)
    Statistics
        Read error                           : 0
        Jitter error (maybe fixed)           : 0
        Retry sector count                   : 0
        Damaged sector count                 : 0

Track 13
    Filename : /Volumes/Hollywood and Vine/Rips/Art Tatum - Piano Starts Hereпјљ Live at the Shrine (Zenph Re-Performance) (2008) [FLAC]/13 I Know That You Know (Stereo Surround version).flac

    Track gain               : 2.33 dB
    Peak                     : 0.589386
    CRC32 hash (test run)    : CFF53862
    CRC32 hash               : CFF53862
    CRC32 hash (skip zero)   : 590E5AAE
    AccurateRip v1 signature : 47AF0B7E
    AccurateRip v2 signature : B11BD5BC
        ->Accurately ripped (v1+v2, confidence 31+52/98)
    Statistics
        Read error                           : 0
        Jitter error (maybe fixed)           : 0
        Retry sector count                   : 0
        Damaged sector count                 : 0

Track 14
    Filename : /Volumes/Hollywood and Vine/Rips/Art Tatum - Piano Starts Hereпјљ Live at the Shrine (Zenph Re-Performance) (2008) [FLAC]/14 Tea for Two (Binaural Stereo version).flac
    Pre-gap length : 00:05:17

    Track gain               : 0.38 dB
    Peak                     : 0.896057
    CRC32 hash (test run)    : C9FC4B77
    CRC32 hash               : C9FC4B77
    CRC32 hash (skip zero)   : 11B87CA6
    AccurateRip v1 signature : 72B6CFCC
    AccurateRip v2 signature : 59CA80AC
        ->Accurately ripped (v1+v2, confidence 30+50/92)
    Statistics
        Read error                           : 0
        Jitter error (maybe fixed)           : 0
        Retry sector count                   : 0
        Damaged sector count                 : 0

Track 15
    Filename : /Volumes/Hollywood and Vine/Rips/Art Tatum - Piano Starts Hereпјљ Live at the Shrine (Zenph Re-Performance) (2008) [FLAC]/15 St. Louis Blues (Binaural Stereo version).flac

    Track gain               : 0.64 dB
    Peak                     : 0.894440
    CRC32 hash (test run)    : FC517908
    CRC32 hash               : FC517908
    CRC32 hash (skip zero)   : 593F742D
    AccurateRip v1 signature : B5030CDB
    AccurateRip v2 signature : 3DC80A50
        ->Accurately ripped (v1+v2, confidence 30+50/92)
    Statistics
        Read error                           : 0
        Jitter error (maybe fixed)           : 0
        Retry sector count                   : 0
        Damaged sector count                 : 0

Track 16
    Filename : /Volumes/Hollywood and Vine/Rips/Art Tatum - Piano Starts Hereпјљ Live at the Shrine (Zenph Re-Performance) (2008) [FLAC]/16 Tiger Rag (Binaural Stereo version).flac

    Track gain               : -0.03 dB
    Peak                     : 0.999969
    CRC32 hash (test run)    : CC6ECE35
    CRC32 hash               : CC6ECE35
    CRC32 hash (skip zero)   : 45F804F2
    AccurateRip v1 signature : A1EB7606
    AccurateRip v2 signature : 1B39B34D
        ->Accurately ripped (v1+v2, confidence 30+50/92)
    Statistics
        Read error                           : 0
        Jitter error (maybe fixed)           : 0
        Retry sector count                   : 0
        Damaged sector count                 : 0

Track 17
    Filename : /Volumes/Hollywood and Vine/Rips/Art Tatum - Piano Starts Hereпјљ Live at the Shrine (Zenph Re-Performance) (2008) [FLAC]/17 Sophisticated Lady (Binaural Stereo version).flac

    Track gain               : 1.18 dB
    Peak                     : 0.687134
    CRC32 hash (test run)    : 3C4AE20D
    CRC32 hash               : 3C4AE20D
    CRC32 hash (skip zero)   : 40210CF9
    AccurateRip v1 signature : 489B56EE
    AccurateRip v2 signature : 4AA39713
        ->Accurately ripped (v1+v2, confidence 30+50/92)
    Statistics
        Read error                           : 0
        Jitter error (maybe fixed)           : 0
        Retry sector count                   : 0
        Damaged sector count                 : 0

Track 18
    Filename : /Volumes/Hollywood and Vine/Rips/Art Tatum - Piano Starts Hereпјљ Live at the Shrine (Zenph Re-Performance) (2008) [FLAC]/18 Humoresque (Binaural Stereo version).flac
    Pre-gap length : 00:02:39

    Track gain               : 4.56 dB
    Peak                     : 0.530914
    CRC32 hash (test run)    : E5D1FED4
    CRC32 hash               : E5D1FED4
    CRC32 hash (skip zero)   : D47E0493
    AccurateRip v1 signature : EF952668
    AccurateRip v2 signature : 0B00CA70
        ->Accurately ripped (v1+v2, confidence 30+50/92)
    Statistics
        Read error                           : 0
        Jitter error (maybe fixed)           : 0
        Retry sector count                   : 0
        Damaged sector count                 : 0

Track 19
    Filename : /Volumes/Hollywood and Vine/Rips/Art Tatum - Piano Starts Hereпјљ Live at the Shrine (Zenph Re-Performance) (2008) [FLAC]/19 Tatum Pole Boogie (Binaural Stereo version).flac

    Track gain               : 1.32 dB
    Peak                     : 0.985962
    CRC32 hash (test run)    : E34B56F8
    CRC32 hash               : E34B56F8
    CRC32 hash (skip zero)   : 0AAC98AB
    AccurateRip v1 signature : 01539864
    AccurateRip v2 signature : 296713D8
        ->Accurately ripped (v1+v2, confidence 30+50/92)
    Statistics
        Read error                           : 0
        Jitter error (maybe fixed)           : 0
        Retry sector count                   : 0
        Damaged sector count                 : 0

Track 20
    Filename : /Volumes/Hollywood and Vine/Rips/Art Tatum - Piano Starts Hereпјљ Live at the Shrine (Zenph Re-Performance) (2008) [FLAC]/20 Someone to Watch Over Me (Binaural Stereo version).flac

    Track gain               : 3.92 dB
    Peak                     : 0.763214
    CRC32 hash (test run)    : CEA75816
    CRC32 hash               : CEA75816
    CRC32 hash (skip zero)   : 9FE37425
    AccurateRip v1 signature : 746E1EB4
    AccurateRip v2 signature : 68093E47
        ->Accurately ripped (v1+v2, confidence 30+50/92)
    Statistics
        Read error                           : 0
        Jitter error (maybe fixed)           : 0
        Retry sector count                   : 0
        Damaged sector count                 : 0

Track 21
    Filename : /Volumes/Hollywood and Vine/Rips/Art Tatum - Piano Starts Hereпјљ Live at the Shrine (Zenph Re-Performance) (2008) [FLAC]/21 How High the Moon (Binaural Stereo version).flac

    Track gain               : 2.04 dB
    Peak                     : 0.722229
    CRC32 hash (test run)    : A385AD16
    CRC32 hash               : A385AD16
    CRC32 hash (skip zero)   : 3FA30F32
    AccurateRip v1 signature : DD4434D8
    AccurateRip v2 signature : CFDE86F3
        ->Accurately ripped (v1+v2, confidence 30+50/92)
    Statistics
        Read error                           : 0
        Jitter error (maybe fixed)           : 0
        Retry sector count                   : 0
        Damaged sector count                 : 0

Track 22
    Filename : /Volumes/Hollywood and Vine/Rips/Art Tatum - Piano Starts Hereпјљ Live at the Shrine (Zenph Re-Performance) (2008) [FLAC]/22 Yesterdays (Binaural Stereo version).flac

    Track gain               : 4.37 dB
    Peak                     : 0.698792
    CRC32 hash (test run)    : 2296A083
    CRC32 hash               : 2296A083
    CRC32 hash (skip zero)   : B54B5F06
    AccurateRip v1 signature : A0F17987
    AccurateRip v2 signature : A939CEC7
        ->Accurately ripped (v1+v2, confidence 30+49/91)
    Statistics
        Read error                           : 0
        Jitter error (maybe fixed)           : 0
        Retry sector count                   : 0
        Damaged sector count                 : 0

Track 23
    Filename : /Volumes/Hollywood and Vine/Rips/Art Tatum - Piano Starts Hereпјљ Live at the Shrine (Zenph Re-Performance) (2008) [FLAC]/23 Willow Weep for Me (Binaural Stereo version).flac

    Track gain               : 4.71 dB
    Peak                     : 0.566193
    CRC32 hash (test run)    : A363E14B
    CRC32 hash               : A363E14B
    CRC32 hash (skip zero)   : FA07692E
    AccurateRip v1 signature : FEEF4F2E
    AccurateRip v2 signature : 7D68C204
        ->Accurately ripped (v1+v2, confidence 30+49/91)
    Statistics
        Read error                           : 0
        Jitter error (maybe fixed)           : 0
        Retry sector count                   : 0
        Damaged sector count                 : 0

Track 24
    Filename : /Volumes/Hollywood and Vine/Rips/Art Tatum - Piano Starts Hereпјљ Live at the Shrine (Zenph Re-Performance) (2008) [FLAC]/24 The Kerry Dance (Binaural Stereo version).flac

    Track gain               : 5.47 dB
    Peak                     : 0.527954
    CRC32 hash (test run)    : 1E79DD5A
    CRC32 hash               : 1E79DD5A
    CRC32 hash (skip zero)   : 995A7D24
    AccurateRip v1 signature : 3CC5DFAB
    AccurateRip v2 signature : 1B563534
        ->Accurately ripped (v1+v2, confidence 30+49/91)
    Statistics
        Read error                           : 0
        Jitter error (maybe fixed)           : 0
        Retry sector count                   : 0
        Damaged sector count                 : 0

Track 25
    Filename : /Volumes/Hollywood and Vine/Rips/Art Tatum - Piano Starts Hereпјљ Live at the Shrine (Zenph Re-Performance) (2008) [FLAC]/25 Gershwin Medley (Binaural Stereo version).flac

    Track gain               : 3.12 dB
    Peak                     : 0.747009
    CRC32 hash (test run)    : 1EC1AC96
    CRC32 hash               : 1EC1AC96
    CRC32 hash (skip zero)   : 10BC9AC1
    AccurateRip v1 signature : 96C0AB2A
    AccurateRip v2 signature : E71A243D
        ->Accurately ripped (v1+v2, confidence 30+49/91)
    Statistics
        Read error                           : 0
        Jitter error (maybe fixed)           : 0
        Retry sector count                   : 0
        Damaged sector count                 : 0

Track 26
    Filename : /Volumes/Hollywood and Vine/Rips/Art Tatum - Piano Starts Hereпјљ Live at the Shrine (Zenph Re-Performance) (2008) [FLAC]/26 I Know That You Know (Binaural Stereo version).flac

    Track gain               : 3.08 dB
    Peak                     : 0.699615
    CRC32 hash (test run)    : 2DDC2A03
    CRC32 hash               : 2DDC2A03
    CRC32 hash (skip zero)   : 6F009A52
    AccurateRip v1 signature : F1C847AF
    AccurateRip v2 signature : AED99D71
        ->Accurately ripped (v1+v2, confidence 30+49/91)
    Statistics
        Read error                           : 0
        Jitter error (maybe fixed)           : 0
        Retry sector count                   : 0
        Damaged sector count                 : 0

No errors occurred

End of status report

-----BEGIN XLD SIGNATURE-----
_4VCVsPQhKqsA0O7cOmkauVVxGR9J8slwnuEq18pm4DjXwmea05Z8liDx3GFMbNeYKZXaXsZvWRwMPdBMKF.XqIOJzaHq2G2dnDh2VC
-----END XLD SIGNATURE-----
Содержание индексной карты (.CUE)
TITLE "Piano Starts Here: Live at the Shrine (Zenph Re-Performance)"
PERFORMER "Art Tatum"
REM GENRE "Jazz"
REM DATE "2008"
REM DISCID A7121C1A
REM REPLAYGAIN_ALBUM_GAIN 1.88 dB
REM REPLAYGAIN_ALBUM_PEAK 0.999969
FILE "01 - Tea for Two (Stereo Surround Version).flac" WAVE
  TRACK 01 AUDIO
    TITLE "Tea for Two (Stereo Surround Version)"
    ISRC USBC10700971
    REM REPLAYGAIN_TRACK_GAIN 2.18 dB
    REM REPLAYGAIN_TRACK_PEAK 0.599487
    INDEX 01 00:00:00
FILE "02 - St. Louis Blues (Stereo Surround Version).flac" WAVE
  TRACK 02 AUDIO
    TITLE "St. Louis Blues (Stereo Surround Version)"
    ISRC USBC10700972
    REM REPLAYGAIN_TRACK_GAIN 3.36 dB
    REM REPLAYGAIN_TRACK_PEAK 0.572510
    INDEX 01 00:00:00
FILE "03 - Tiger Rag (Stereo Surround Version).flac" WAVE
  TRACK 03 AUDIO
    TITLE "Tiger Rag (Stereo Surround Version)"
    ISRC USBC10700973
    REM REPLAYGAIN_TRACK_GAIN 1.59 dB
    REM REPLAYGAIN_TRACK_PEAK 0.750519
    INDEX 01 00:00:00
FILE "04 - Sophisticated Lady (Stereo Surround Version).flac" WAVE
  TRACK 04 AUDIO
    TITLE "Sophisticated Lady (Stereo Surround Version)"
    ISRC USBC10700974
    REM REPLAYGAIN_TRACK_GAIN 2.35 dB
    REM REPLAYGAIN_TRACK_PEAK 0.532684
    INDEX 01 00:00:00
FILE "05 - Humoresque (Stereo Surround Version).flac" WAVE
  TRACK 05 AUDIO
    TITLE "Humoresque (Stereo Surround Version)"
    ISRC USBC10700962
    REM REPLAYGAIN_TRACK_GAIN 2.78 dB
    REM REPLAYGAIN_TRACK_PEAK 0.535583
    INDEX 01 00:00:00
FILE "06 - Tatum Pole Boogie (Stereo Surround Version).flac" WAVE
  TRACK 06 AUDIO
    TITLE "Tatum Pole Boogie (Stereo Surround Version)"
    ISRC USBC10700963
    REM REPLAYGAIN_TRACK_GAIN 0.17 dB
    REM REPLAYGAIN_TRACK_PEAK 0.816284
    INDEX 01 00:00:00
FILE "07 - Someone to Watch over Me (Stereo Surround Version).flac" WAVE
  TRACK 07 AUDIO
    TITLE "Someone to Watch over Me (Stereo Surround Version)"
    ISRC USBC10700964
    REM REPLAYGAIN_TRACK_GAIN 2.04 dB
    REM REPLAYGAIN_TRACK_PEAK 0.621246
    INDEX 01 00:00:00
FILE "08 - How High the Moon (Stereo Surround Version).flac" WAVE
  TRACK 08 AUDIO
    TITLE "How High the Moon (Stereo Surround Version)"
    ISRC USBC10700965
    REM REPLAYGAIN_TRACK_GAIN 0.12 dB
    REM REPLAYGAIN_TRACK_PEAK 0.799194
    INDEX 01 00:00:00
FILE "09 - Yesterdays (Stereo Surround Version).flac" WAVE
  TRACK 09 AUDIO
    TITLE "Yesterdays (Stereo Surround Version)"
    ISRC USBC10700966
    REM REPLAYGAIN_TRACK_GAIN 2.17 dB
    REM REPLAYGAIN_TRACK_PEAK 0.846680
    INDEX 01 00:00:00
FILE "10 - Willow Weep for Me (Stereo Surround Version).flac" WAVE
  TRACK 10 AUDIO
    TITLE "Willow Weep for Me (Stereo Surround Version)"
    ISRC USBC10700967
    REM REPLAYGAIN_TRACK_GAIN 2.64 dB
    REM REPLAYGAIN_TRACK_PEAK 0.633789
    INDEX 01 00:00:00
FILE "11 - The Kerry Dance (Stereo Surround Version).flac" WAVE
  TRACK 11 AUDIO
    TITLE "The Kerry Dance (Stereo Surround Version)"
    ISRC USBC10700968
    REM REPLAYGAIN_TRACK_GAIN 2.85 dB
    REM REPLAYGAIN_TRACK_PEAK 0.551910
    INDEX 01 00:00:00
FILE "12 - Gershwin Medley (Stereo Surround Version).flac" WAVE
  TRACK 12 AUDIO
    TITLE "Gershwin Medley (Stereo Surround Version)"
    ISRC USBC10700969
    REM REPLAYGAIN_TRACK_GAIN 1.46 dB
    REM REPLAYGAIN_TRACK_PEAK 0.734222
    INDEX 01 00:00:00
FILE "13 - I Know That You Know (Stereo Surround Version).flac" WAVE
  TRACK 13 AUDIO
    TITLE "I Know That You Know (Stereo Surround Version)"
    ISRC USBC10700970
    REM REPLAYGAIN_TRACK_GAIN 2.33 dB
    REM REPLAYGAIN_TRACK_PEAK 0.589386
    INDEX 01 00:00:00
  TRACK 14 AUDIO
    TITLE "Tea for Two (Binaural Stereo Version)"
    ISRC USBC10701011
    REM REPLAYGAIN_TRACK_GAIN 0.38 dB
    REM REPLAYGAIN_TRACK_PEAK 0.896057
    INDEX 00 02:40:47
FILE "14 - Tea for Two (Binaural Stereo Version).flac" WAVE
    INDEX 01 00:00:00
FILE "15 - St. Louis Blues (Binaural Stereo Version).flac" WAVE
  TRACK 15 AUDIO
    TITLE "St. Louis Blues (Binaural Stereo Version)"
    ISRC USBC10701015
    REM REPLAYGAIN_TRACK_GAIN 0.64 dB
    REM REPLAYGAIN_TRACK_PEAK 0.894440
    INDEX 01 00:00:00
FILE "16 - Tiger Rag (Binaural Stereo Version).flac" WAVE
  TRACK 16 AUDIO
    TITLE "Tiger Rag (Binaural Stereo Version)"
    ISRC USBC10701019
    REM REPLAYGAIN_TRACK_GAIN -0.03 dB
    REM REPLAYGAIN_TRACK_PEAK 0.999969
    INDEX 01 00:00:00
FILE "17 - Sophisticated Lady (Binaural Stereo Version).flac" WAVE
  TRACK 17 AUDIO
    TITLE "Sophisticated Lady (Binaural Stereo Version)"
    ISRC USBC10701023
    REM REPLAYGAIN_TRACK_GAIN 1.18 dB
    REM REPLAYGAIN_TRACK_PEAK 0.687134
    INDEX 01 00:00:00
  TRACK 18 AUDIO
    TITLE "Humoresque (Binaural Stereo Version)"
    ISRC USBC10700975
    REM REPLAYGAIN_TRACK_GAIN 4.56 dB
    REM REPLAYGAIN_TRACK_PEAK 0.530914
    INDEX 00 03:17:45
FILE "18 - Humoresque (Binaural Stereo Version).flac" WAVE
    INDEX 01 00:00:00
FILE "19 - Tatum Pole Boogie (Binaural Stereo Version).flac" WAVE
  TRACK 19 AUDIO
    TITLE "Tatum Pole Boogie (Binaural Stereo Version)"
    ISRC USBC10700979
    REM REPLAYGAIN_TRACK_GAIN 1.32 dB
    REM REPLAYGAIN_TRACK_PEAK 0.985962
    INDEX 01 00:00:00
FILE "20 - Someone to Watch over Me (Binaural Stereo Version).flac" WAVE
  TRACK 20 AUDIO
    TITLE "Someone to Watch over Me (Binaural Stereo Version)"
    ISRC USBC10700983
    REM REPLAYGAIN_TRACK_GAIN 3.92 dB
    REM REPLAYGAIN_TRACK_PEAK 0.763214
    INDEX 01 00:00:00
FILE "21 - How High the Moon (Binaural Stereo Version).flac" WAVE
  TRACK 21 AUDIO
    TITLE "How High the Moon (Binaural Stereo Version)"
    ISRC USBC10700987
    REM REPLAYGAIN_TRACK_GAIN 2.04 dB
    REM REPLAYGAIN_TRACK_PEAK 0.722229
    INDEX 01 00:00:00
FILE "22 - Yesterdays (Binaural Stereo Version).flac" WAVE
  TRACK 22 AUDIO
    TITLE "Yesterdays (Binaural Stereo Version)"
    ISRC USBC10700991
    REM REPLAYGAIN_TRACK_GAIN 4.37 dB
    REM REPLAYGAIN_TRACK_PEAK 0.698792
    INDEX 01 00:00:00
FILE "23 - Willow Weep for Me (Binaural Stereo Version).flac" WAVE
  TRACK 23 AUDIO
    TITLE "Willow Weep for Me (Binaural Stereo Version)"
    ISRC USBC10700995
    REM REPLAYGAIN_TRACK_GAIN 4.71 dB
    REM REPLAYGAIN_TRACK_PEAK 0.566193
    INDEX 01 00:00:00
FILE "24 - The Kerry Dance (Binaural Stereo Version).flac" WAVE
  TRACK 24 AUDIO
    TITLE "The Kerry Dance (Binaural Stereo Version)"
    ISRC USBC10700999
    REM REPLAYGAIN_TRACK_GAIN 5.47 dB
    REM REPLAYGAIN_TRACK_PEAK 0.527954
    INDEX 01 00:00:00
FILE "25 - Gershwin Medley (Binaural Stereo Version).flac" WAVE
  TRACK 25 AUDIO
    TITLE "Gershwin Medley (Binaural Stereo Version)"
    ISRC USBC10701003
    REM REPLAYGAIN_TRACK_GAIN 3.12 dB
    REM REPLAYGAIN_TRACK_PEAK 0.747009
    INDEX 01 00:00:00
FILE "26 - I Know That You Know (Binaural Stereo Version).flac" WAVE
  TRACK 26 AUDIO
    TITLE "I Know That You Know (Binaural Stereo Version)"
    ISRC USBC10701007
    REM REPLAYGAIN_TRACK_GAIN 3.08 dB
    REM REPLAYGAIN_TRACK_PEAK 0.699615
    INDEX 01 00:00:00
Лог проверки качества
[CUETools log; Date: 04.02.2019 16:07:28; Version: 2.1.6]
[CTDB TOCID: M69r1WPmorwlO9AZJVmrxaLxNg8-] found.
Track | CTDB Status
  1   | (38/38) Accurately ripped
  2   | (38/38) Accurately ripped
  3   | (38/38) Accurately ripped
  4   | (38/38) Accurately ripped
  5   | (38/38) Accurately ripped
  6   | (38/38) Accurately ripped
  7   | (38/38) Accurately ripped
  8   | (38/38) Accurately ripped
  9   | (38/38) Accurately ripped
 10   | (38/38) Accurately ripped
 11   | (38/38) Accurately ripped
 12   | (38/38) Accurately ripped
 13   | (38/38) Accurately ripped
 14   | (38/38) Accurately ripped
 15   | (38/38) Accurately ripped
 16   | (38/38) Accurately ripped
 17   | (37/38) Accurately ripped
 18   | (38/38) Accurately ripped
 19   | (38/38) Accurately ripped
 20   | (38/38) Accurately ripped
 21   | (38/38) Accurately ripped
 22   | (38/38) Accurately ripped
 23   | (38/38) Accurately ripped
 24   | (38/38) Accurately ripped
 25   | (38/38) Accurately ripped
 26   | (38/38) Accurately ripped
[AccurateRip ID: 0047f953-053ea9c0-a7121c1a] found.
Track   [  CRC   |   V2   ] Status
 01     [03a3e9bc|eb0ae455] (031+059/106) Accurately ripped
 02     [c01705dc|738cd679] (032+059/107) Accurately ripped
 03     [1335bba9|bb5ab5e4] (032+058/106) Accurately ripped
 04     [834a5bd1|d2ab2a40] (032+059/107) Accurately ripped
 05     [c7889da9|8e12af3b] (032+059/107) Accurately ripped
 06     [2b1a78a6|0598d845] (032+059/107) Accurately ripped
 07     [0288d0cf|8dd338f4] (032+059/107) Accurately ripped
 08     [951bd614|5e5eaf45] (032+059/107) Accurately ripped
 09     [aaa101bc|d366f5eb] (032+059/107) Accurately ripped
 10     [af9ef6e1|54c7837b] (031+058/105) Accurately ripped
 11     [87a34985|3e784d47] (031+058/105) Accurately ripped
 12     [959751a0|11b24af2] (032+059/107) Accurately ripped
 13     [47af0b7e|b11bd5bc] (032+058/106) Accurately ripped
 14     [72b6cfcc|59ca80ac] (031+056/100) Accurately ripped
 15     [b5030cdb|3dc80a50] (031+056/100) Accurately ripped
 16     [a1eb7606|1b39b34d] (031+056/100) Accurately ripped
 17     [489b56ee|4aa39713] (031+056/100) Accurately ripped
 18     [ef952668|0b00ca70] (031+056/100) Accurately ripped
 19     [01539864|296713d8] (031+056/100) Accurately ripped
 20     [746e1eb4|68093e47] (031+056/100) Accurately ripped
 21     [dd4434d8|cfde86f3] (031+056/100) Accurately ripped
 22     [a0f17987|a939cec7] (031+055/099) Accurately ripped
 23     [feef4f2e|7d68c204] (031+055/099) Accurately ripped
 24     [3cc5dfab|1b563534] (031+055/099) Accurately ripped
 25     [96c0ab2a|e71a243d] (031+055/099) Accurately ripped
 26     [f1c847af|aed99d71] (031+054/098) Accurately ripped
Offsetted by -12:
 01     [3d90eb70] (007/106) Accurately ripped
 02     [81dfe38e] (007/107) Accurately ripped
 03     [817d70d0] (007/106) Accurately ripped
 04     [e662a820] (007/107) Accurately ripped
 05     [37996741] (007/107) Accurately ripped
 06     [f4294bc0] (007/107) Accurately ripped
 07     [5275a5de] (007/107) Accurately ripped
 08     [0cfd5580] (007/107) Accurately ripped
 09     [2b3a0d32] (007/107) Accurately ripped
 10     [6eee2636] (007/105) Accurately ripped
 11     [137d2cdb] (007/105) Accurately ripped
 12     [961cf34e] (007/107) Accurately ripped
 13     [ea4fffc9] (007/106) Accurately ripped
 14     [df698366] (006/100) Accurately ripped
 15     [62eccf9c] (006/100) Accurately ripped
 16     [cc510c85] (006/100) Accurately ripped
 17     [297a301b] (006/100) Accurately ripped
 18     [d271fbcd] (006/100) Accurately ripped
 19     [940772e3] (006/100) Accurately ripped
 20     [929de302] (006/100) Accurately ripped
 21     [712bddca] (006/100) Accurately ripped
 22     [a39f7cb9] (006/099) Accurately ripped
 23     [ed64207d] (006/099) Accurately ripped
 24     [b85b0e1b] (006/099) Accurately ripped
 25     [3e6bc345] (006/099) Accurately ripped
 26     [8d056575] (006/098) Accurately ripped

Track Peak [ CRC32  ] [W/O NULL]
 --  100,0 [8235E111] [489BDD50]
 01   59,9 [062EBB52] [DCD819AD]
 02   57,2 [D696FA14] [2B66ADEC]
 03   75,0 [649A99D9] [5E765473]
 04   53,2 [F170B476] [8BC03DB2]
 05   53,5 [2093DFF5] [BF2DB014]
 06   81,6 [28DE6239] [11AC5B31]
 07   62,1 [D48837ED] [A46343C0]
 08   79,9 [64776F1C] [6C1D5D2F]
 09   84,6 [ED08100E] [AC5C6956]
 10   63,3 [1C125969] [E1DD44A0]
 11   55,1 [89D7CEA5] [D7F0B39C]
 12   73,4 [7892CF63] [D054999A]
 13   58,9 [CFF53862] [590E5AAE]
 14   89,6 [C9FC4B77] [11B87CA6]
 15   89,4 [FC517908] [593F742D]
 16  100,0 [CC6ECE35] [45F804F2]
 17   68,7 [3C4AE20D] [40210CF9]
 18   53,0 [E5D1FED4] [D47E0493]
 19   98,5 [E34B56F8] [0AAC98AB]
 20   76,3 [CEA75816] [9FE37425]
 21   72,2 [A385AD16] [3FA30F32]
 22   69,8 [2296A083] [B54B5F06]
 23   56,6 [A363E14B] [FA07692E]
 24   52,7 [1E79DD5A] [995A7D24]
 25   74,7 [1EC1AC96] [10BC9AC1]
 26   69,9 [2DDC2A03] [6F009A52]
19:25
668
Нет комментариев. Ваш будет первым!