Поиск

2008 The Great Jazz Trio - Blue Minor {Eighty Eights} [DSD64 ISO]

2008 The Great Jazz Trio - Blue Minor {Eighty Eights} [DSD64 ISO]
Стили:
Место записи:
Sony Music Studios, Tokyo
Дата издания диска:
3 декабря 2022
Носитель:
SACD
Формат:
DSD
Тип рипа:
image
Контейнер:
ISO (*.iso)
Количество каналов:
2.0
Разрядность/ЧД:
64 (2,8 MHz/1 Bit)
Битрейт аудио:
lossless
Время звучания:
00:48:48
Наличие сканов:
только обложка

Треклист:

01. Nica's Dream  06:02
02. Dear Old Stockholm  04:46
03. Lonely Moments  05:01
04. I Let a Song Go Out of My Heart  03:24
05. Blue Minor  04:11
06. Comin' Home Baby  05:30
07. Wave  06:45
08. My Ideal  04:18
09. I Got Rhythm  04:08
10. Misty  05:00

 

Состав:
  • Bass – George Mraz
  • Drums – Billy Kilson
  • Piano – Hank Jones
  • Vocals – Keiko Lee (трек: 4)
  • Vocals, Flugelhorn – TOKU (трек: 8)
Лог проверки качества
foobar2000 1.6.8 / Dynamic Range Meter 1.1.1
log date: 2021-12-30 23:31:10
--------------------------------------------------------------------------------
Analyzed: THE GREAT JAZZ TRIO / BLUE MINOR
--------------------------------------------------------------------------------
DR         Peak         RMS     Duration Track
--------------------------------------------------------------------------------
DR11      -4.35 dB   -17.45 dB      6:00 01-Nica's Dream
DR13      -6.56 dB   -23.15 dB      4:44 02-Dear Old Stockholm
DR12      -4.24 dB   -19.25 dB      4:59 03-Lonely Moments
DR12      -4.26 dB   -19.52 dB      3:23 04-I Let a Song Go Out of My Heart
DR13      -4.24 dB   -19.89 dB      4:09 05-Blue Minor
DR12      -4.60 dB   -19.52 dB      5:28 06-Comin' Home Baby
DR12      -4.33 dB   -19.52 dB      6:43 07-Wave
DR14      -5.33 dB   -26.06 dB      4:16 08-My Ideal
DR12      -4.14 dB   -19.11 dB      4:06 09-I Got Rhythm
DR16      -4.63 dB   -25.25 dB      5:00 10-Misty
--------------------------------------------------------------------------------
Number of tracks:  10
Official DR value: DR13
Samplerate:        2822400 Hz / PCM Samplerate: 88200 Hz
Channels:          2
Bits per sample:   1
Bitrate:           5645 kbps
Codec:             DSD64
================================================================================
По всем вопросам пишите личное сообщение пользователю M0p94ok.
20:06
101
Нет комментариев. Ваш будет первым!