Вы используете незарегистрированную версию компонента "Вкладки"!

Поиск

2009 John Di Martino's Romantic Jazz Trio - Moliendo Cafe (2017) {Venus} [DSD64 ISO]

2009 John Di Martino's Romantic Jazz Trio - Moliendo Cafe (2017) {Venus} [DSD64 ISO]
Стили:
Дата записи диска:
15 апреля - 16 апреля 2008
Место записи:
Avatar Studios, New York City, NY, USA
Дата издания диска:
17 июня 2009
Издатель (лейбл):
Носитель:
SACD
Формат:
DSD
Тип рипа:
image
Контейнер:
ISO (*.iso)
Количество каналов:
2.0
Разрядность/ЧД:
64 (2,8 MHz/1 Bit)
Битрейт аудио:
lossless
Время звучания:
01:10:15
Наличие сканов:
да
Лог проверки качества
foobar2000 1.6.4 / Dynamic Range Meter 1.1.1
log date: 2021-07-06 11:53:52

--------------------------------------------------------------------------------
Analyzed: JOHN DI MARTINO'S ROMANTIC JAZZ TRIO / Moliendo Cafe
--------------------------------------------------------------------------------

DR         Peak         RMS     Duration Track
--------------------------------------------------------------------------------
DR9       -4.70 dB   -15.10 dB      4:43 01-Maria Cervantes
DR8       -4.57 dB   -14.59 dB      4:22 02-Angelitos Negros
DR10      -4.85 dB   -16.80 dB      5:55 03-Amapola
DR8       -4.61 dB   -14.20 dB      5:12 04-Obsesion
DR9       -4.82 dB   -15.92 dB      5:03 05-Te Quiero Dijiste
DR9       -4.82 dB   -15.32 dB      3:43 06-Babalu
DR9       -4.81 dB   -15.14 dB      4:58 07-Noche De Ronda
DR8       -4.42 dB   -14.05 dB      4:43 08-Quien Sera
DR10      -4.82 dB   -16.52 dB      5:25 09-Green Eyes
DR7       -4.71 dB   -13.48 dB      5:53 10-Granada
DR7       -4.60 dB   -12.81 dB      5:20 11-Moliendo Cafe
DR9       -4.85 dB   -15.70 dB      4:58 12-Yesterday I Heard The Rain
DR8       -4.64 dB   -14.70 dB      5:10 13-Miami Beach Rumba
DR9       -4.84 dB   -15.39 dB      4:51 14-Jungle Drums
--------------------------------------------------------------------------------

Number of tracks:  14
Official DR value: DR8

Samplerate:        2822400 Hz / PCM Samplerate: 88200 Hz
Channels:          2
Bits per sample:   1
Bitrate:           5645 kbps
Codec:             DSD64
================================================================================
Any questions - support@pro-jazz.com. Есть вопросы - support@pro-jazz.com
21:50
90
Нет комментариев. Ваш будет первым!