Поиск

2010 Jeff Lorber Fusion - Now Is The Time {Heads Up} [CD]

2010 Jeff Lorber Fusion - Now Is The Time {Heads Up} [CD]
Издатель (лейбл):
Треклист:
01. Rain Dance/Wanna Fly - 5:23
02. Dr. Moy - 4:22
03. Pixel - 4:13
04. Sugar Free - 4:00
05. Mysterious Traveller - 3:56
06. Curtains/Before We Go - 4:55
07. Black Ice - 4:17
08. Las Rosas - 3:07
09. Chinese Medicinal Herbs - 4:49
10. Water Sign - 4:24
11. Sumatra - 4:11
Лог создания рипа
Exact Audio Copy V0.99 prebeta 5 from 4. May 2009
Отчёт EAC об извлечении, выполненном 3. октября 2010, 19:59
Jeff Lorber Fusion / Now Is The Time
Дисковод: PIONEER DVD-RW  DVR-215D   Adapter: 3  ID: 0
Режим чтения                 : Достоверность
Использование точного потока : Да
Отключение кэша аудио        : Да
Использование указателей C2  : Нет
Коррекция смещения при чтении                     : 48
Способность читать области Lead-in и Lead-out     : Нет
Заполнение пропущенных сэмплов тишиной            : Да
Удаление блоков с тишиной в начале и конце        : Нет
При вычислениях CRC использовались нулевые сэмплы : Да
Интерфейс                                         : Встроенный Win32-интерфейс для Win NT/2000
Выходной формат : Внутренние WAV-операции
Формат сэмплов  : 44.100 Гц; 16 бит; стерео
TOC извлечённого CD
     Трек |   Старт  | Длительность | Начальный сектор | Конечный сектор
    ---------------------------------------------------------------------
       1  |  0:00.00 |    5:23.30   |           0      |      24254
       2  |  5:23.30 |    4:22.14   |       24255      |      43918
       3  |  9:45.44 |    4:13.57   |       43919      |      62950
       4  | 13:59.26 |    4:00.07   |       62951      |      80957
       5  | 17:59.33 |    3:56.72   |       80958      |      98729
       6  | 21:56.30 |    4:55.53   |       98730      |     120907
       7  | 26:52.08 |    4:17.15   |      120908      |     140197
       8  | 31:09.23 |    3:07.01   |      140198      |     154223
       9  | 34:16.24 |    4:49.17   |      154224      |     175915
      10  | 39:05.41 |    4:24.53   |      175916      |     195768
      11  | 43:30.19 |    4:11.38   |      195769      |     214631
Характеристики диапазона извлечения и сообщения об ошибках
Выбранный диапазон
     Имя файла E:\обработать\Jeff Lorber Fusion - Now Is The Time.wav
     Пиковый уровень 98.8 %
     Качество диапазона 100.0 %
     CRC копии 2BD76D8B
     Копирование... OK
Ошибок не произошло
AccurateRip: сводка
Трек  1  нет в базе данных
Трек  2  нет в базе данных
Трек  3  нет в базе данных
Трек  4  нет в базе данных
Трек  5  нет в базе данных
Трек  6  нет в базе данных
Трек  7  нет в базе данных
Трек  8  нет в базе данных
Трек  9  нет в базе данных
Трек 10  нет в базе данных
Трек 11  нет в базе данных
Ни одного трека нет в базе AccurateRip
Конец отчёта
22:37
724
Нет комментариев. Ваш будет первым!