Поиск

2010 Jonathan Butler - So Strong {Mack Avenue} [CD]

2010 Jonathan Butler - So Strong {Mack Avenue} [CD]
Стили:
Дата издания диска:
11 мая 2010
Издатель (лейбл):
Треклист:

01. So Strong 3:44
02. You Got to Believe in Something 5:01
03. Make Room for Me 3:29
04. Factual 4:09
05. Feels So Good 3:45
06. Be Here With You 4:38
07. Avia / For My Baby 4:25
08. I'm Right Here 3:31
09. Color Green 3:59
10. Good Times 4:02
11. I Can See Clearly Now 4:54
12. I Pay Respect 5:09
13. So Strong (Steppers Mix) 4:04
14. So Strong (Urban AC Mix) 3:27

Состав:
  • Keith Allen — Vocals (Background)
  • Rick Braun — Horn, Trumpet
  • Jodie Butler — Make-Up, Stylist, Vocals (Background)
  • Jonathan Butler — Arranger, Composer, Guitar, Instrumentation, Producer, Tracking, Vocals, Vocals (Background)
  • Randy Butler — Vocals (Background)
  • Nita Hutton — Vocals (Background)
  • Demeka Jackson — Vocals (Background)
  • Andrea Jones — Vocals (Background)
  • Cammie Knight — Vocals (Background)
  • Kenneth Knight — Organ
  • Dave Koz — Saxophone
  • Shanika Leeks — Vocals (Background)
  • Michael Lington — Saxophone
  • Kurt Lykes — Composer, Vocals (Background)
  • Angie Stone — Vocals
Лог создания рипа
Exact Audio Copy V0.99 prebeta 5 from 4. May 2009
EAC extraction logfile from 17. February 2011, 18:32
Johnathan Butler / So Strong
Used drive  : ASUS    DRW-20B1ST   Adapter: 3  ID: 0
Read mode               : Secure
Utilize accurate stream : Yes
Defeat audio cache      : Yes
Make use of C2 pointers : No
Read offset correction                      : 6
Overread into Lead-In and Lead-Out          : No
Fill up missing offset samples with silence : Yes
Delete leading and trailing silent blocks   : No
Null samples used in CRC calculations       : Yes
Used interface                              : Installed external ASPI interface
Gap handling                                : Not detected, thus appended to previous track
Used output format : Internal WAV Routines
Sample format      : 44.100 Hz; 16 Bit; Stereo
TOC of the extracted CD
     Track |   Start  |  Length  | Start sector | End sector
    ---------------------------------------------------------
        1  |  0:00.00 |  3:44.54 |         0    |    16853
        2  |  3:44.54 |  5:01.21 |     16854    |    39449
        3  |  8:46.00 |  3:29.26 |     39450    |    55150
        4  | 12:15.26 |  4:09.39 |     55151    |    73864
        5  | 16:24.65 |  3:44.72 |     73865    |    90736
        6  | 20:09.62 |  4:38.19 |     90737    |   111605
        7  | 24:48.06 |  4:25.17 |    111606    |   131497
        8  | 29:13.23 |  3:31.32 |    131498    |   147354
        9  | 32:44.55 |  3:58.74 |    147355    |   165278
       10  | 36:43.54 |  4:02.57 |    165279    |   183485
       11  | 40:46.36 |  4:54.66 |    183486    |   205601
       12  | 45:41.27 |  5:09.03 |    205602    |   228779
       13  | 50:50.30 |  4:04.00 |    228780    |   247079
       14  | 54:54.30 |  3:27.63 |    247080    |   262667
Track  1
     Filename C:\Jonathan Butler - So Strong\01. So Stong.wav
     Peak level 98.8 %
     Track quality 100.0 %
     Test CRC C458A8DD
     Copy CRC C458A8DD
     Accurately ripped (confidence 4)  [A28DB230]
     Copy OK
Track  2
     Filename C:\Jonathan Butler - So Strong\02. You Got To Believe In Something.wav
     Peak level 98.8 %
     Track quality 100.0 %
     Test CRC 35256946
     Copy CRC 35256946
     Accurately ripped (confidence 4)  [D61874B5]
     Copy OK
Track  3
     Filename C:\Jonathan Butler - So Strong\03. Make Room For Me.wav
     Peak level 98.8 %
     Track quality 100.0 %
     Test CRC 414B30D6
     Copy CRC 414B30D6
     Accurately ripped (confidence 5)  [F00D5410]
     Copy OK
Track  4
     Filename C:\Jonathan Butler - So Strong\04. Factual.wav
     Peak level 98.8 %
     Track quality 100.0 %
     Test CRC FC51A887
     Copy CRC FC51A887
     Accurately ripped (confidence 4)  [63692525]
     Copy OK
Track  5
     Filename C:\Jonathan Butler - So Strong\05. Feels So Good.wav
     Peak level 98.8 %
     Track quality 100.0 %
     Test CRC 3731721E
     Copy CRC 3731721E
     Accurately ripped (confidence 4)  [6655311B]
     Copy OK
Track  6
     Filename C:\Jonathan Butler - So Strong\06. Be Here With You.wav
     Peak level 98.8 %
     Track quality 99.9 %
     Test CRC F8B3FB00
     Copy CRC F8B3FB00
     Accurately ripped (confidence 4)  [4D39C226]
     Copy OK
Track  7
     Filename C:\Jonathan Butler - So Strong\07. Avia,For My baby.wav
     Peak level 98.8 %
     Track quality 100.0 %
     Test CRC A10450EA
     Copy CRC A10450EA
     Accurately ripped (confidence 4)  [02B425B0]
     Copy OK
Track  8
     Filename C:\Jonathan Butler - So Strong\08. I'm Right Here.wav
     Peak level 98.8 %
     Track quality 100.0 %
     Test CRC 3D8DFCE8
     Copy CRC 3D8DFCE8
     Accurately ripped (confidence 4)  [C4CAB382]
     Copy OK
Track  9
     Filename C:\Jonathan Butler - So Strong\09. Color Green.wav
     Peak level 98.8 %
     Track quality 100.0 %
     Test CRC 76C32513
     Copy CRC 76C32513
     Accurately ripped (confidence 4)  [729E458E]
     Copy OK
Track 10
     Filename C:\Jonathan Butler - So Strong\10.  Good Times.wav
     Peak level 98.8 %
     Track quality 99.9 %
     Test CRC 899BE6E4
     Copy CRC 899BE6E4
     Accurately ripped (confidence 5)  [B621B9E0]
     Copy OK
Track 11
     Filename C:\Jonathan Butler - So Strong\11. I Can See Clearly Now.wav
     Peak level 98.8 %
     Track quality 99.9 %
     Test CRC 468EA044
     Copy CRC 468EA044
     Accurately ripped (confidence 4)  [212A865A]
     Copy OK
Track 12
     Filename C:\Jonathan Butler - So Strong\12. I Pay Respect.wav
     Peak level 98.8 %
     Track quality 100.0 %
     Test CRC A75BC764
     Copy CRC A75BC764
     Accurately ripped (confidence 5)  [0B2A8E49]
     Copy OK
Track 13
     Filename C:\Jonathan Butler - So Strong\13. So Strong - Steppers Mix.wav
     Peak level 98.8 %
     Track quality 100.0 %
     Test CRC B450277E
     Copy CRC B450277E
     Accurately ripped (confidence 4)  [47BC0B5D]
     Copy OK
Track 14
     Filename C:\Jonathan Butler - So Strong\14. So Strong - Urban AC Mix.wav
     Peak level 98.8 %
     Track quality 100.0 %
     Test CRC 83D683FF
     Copy CRC 83D683FF
     Accurately ripped (confidence 4)  [496CCF18]
     Copy OK
All tracks accurately ripped
No errors occurred
End of status report
00:02
766
Нет комментариев. Ваш будет первым!